Светлячок. Воссоединение Коричневых плащей к 10 годовщине / Firefly 10th Anniversary Special: Browncoats Unite [2012, документальный, HDTVRip] MVO


Статистика раздачи [Обновить пиров]
Размер:  550 MB   |    Зарегистрирован:  8 месяцев 19 дней   |    Скачан:  0 раз

Полного источника не было: Никогда

Личеров:  3  [  0 KB/s  ]   Подробная статистика пиров
 
   
 
 
 

[Цитировать]

--Светлячок. Воссоединение Коричневых плащей к 10 годовщине
Firefly 10th Anniversary Special: Browncoats Unite
-- Год выпуска: 2012
Страна: США
Жанр: документальный
Продолжительность: ~ 00:43:10
Перевод: профессиональный многоголосый закадровый-В ролях: Нэйтан Филлиэн, Алан Тьюдик, Морена Баккарин, Адам Болдвин, Джуэл Стэйт, Шон Маaр, Саммер Глау, Тим Майнир, Хосе Молина, Джосс Уидон, Джефф Дженсен-Описание: Спустя десять лет, актёры сериала "Светлячок" снова вместе, чтобы вспомнить историю создания короткого сериала, который стал звездой "Сай-фай" и завоевал миллионы поклонников.- -Качество: HDTVRip
Формат: AVI
Видео кодек: XviD
Аудио кодек: MP3
Видео: 720x400 (1.80:1), 23.976 fps, XviD, ~1513 kbps avg, 0.22 bit/pixel
Аудио Rus: 48 kHz, MPEG Layer 3, 2 ch, ~128.00 kbps avg
Аудио Eng: 48 kHz, MPEG Layer 3, 2 ch, ~128.00 kbps avg-

Скриншоты


MediaInfo

Format : AVI
Format/Info : Audio Video Interleave
File size : 550 MiB
Duration : 43mn 10s
Overall bit rate : 1 782 Kbps
Writing application : VirtualDubMod 1.5.10.2 (build 2542/release)
Writing library : VirtualDubMod build 2542/release
Video
ID : 0
Format : MPEG-4 Visual
Format profile : Advanced Simple@L5
Format settings, BVOP : 1
Format settings, QPel : No
Format settings, GMC : No warppoints
Format settings, Matrix : Default (MPEG)
Codec ID : XVID
Codec ID/Hint : XviD
Duration : 43mn 10s
Bit rate : 1 512 Kbps
Width : 720 pixels
Height : 400 pixels
Display aspect ratio : 16:9
Frame rate : 23.976 fps
Color space : YUV
Chroma subsampling : 4:2:0
Bit depth : 8 bits
Scan type : Progressive
Compression mode : Lossy
Bits/(Pixel*Frame) : 0.219
Stream size : 467 MiB (85%)
Writing library : XviD 1.2.1 (UTC 2008-12-04)
Audio #1
ID : 1
Format : MPEG Audio
Format version : Version 1
Format profile : Layer 3
Mode : Joint stereo
Mode extension : MS Stereo
Codec ID : 55
Codec ID/Hint : MP3
Duration : 43mn 10s
Bit rate mode : Constant
Bit rate : 128 Kbps
Channel(s) : 2 channels
Sampling rate : 48.0 KHz
Compression mode : Lossy
Stream size : 39.5 MiB (7%)
Alignment : Aligned on interleaves
Interleave, duration : 42 ms (1.00 video frame)
Interleave, preload duration : 504 ms
Audio #2
ID : 2
Format : MPEG Audio
Format version : Version 1
Format profile : Layer 3
Mode : Joint stereo
Mode extension : MS Stereo
Codec ID : 55
Codec ID/Hint : MP3
Duration : 43mn 10s
Bit rate mode : Constant
Bit rate : 128 Kbps
Channel(s) : 2 channels
Sampling rate : 48.0 KHz
Compression mode : Lossy
Stream size : 39.5 MiB (7%)
Alignment : Aligned on interleaves
Interleave, duration : 42 ms (1.00 video frame)
Interleave, preload duration : 504 ms
-
[teatrix.ru].t16776.torrent 
Торрент: Зарегистрирован [ 2016-03-17 00:03 ] · AE2ECD48EB64AACA9DDB1A8BC50736F259AFDD1A

Скачать .torrent

Скачать

12 KB

Статус: проверено
Скачан: 0 раз
Размер: 550 MB
terms.php



Показать сообщения:    

Текущее время: 05-Дек 11:32

Часовой пояс: UTC + 3


Вы не можете начинать темы
Вы не можете отвечать на сообщения
Вы не можете редактировать свои сообщения
Вы не можете удалять свои сообщения
Вы не можете голосовать в опросах
Вы не можете прикреплять файлы к сообщениям
Вы можете скачивать файлы