Стать ... Битлз / Becoming...The Beatles (Крис Коуи / Chris Cowey) [2012, Документальный фильм, SATRip]


Статистика раздачи [Обновить пиров]
Размер:  404 MB   |    Зарегистрирован:  10 месяцев 7 дней   |    Скачан:  0 раз

Полного источника не было: Никогда

Личеров:  3  [  0 KB/s  ]   Подробная статистика пиров
 
   
 
 
 

[Цитировать]

Стать ... Битлз / Becoming...The Beatles
Год выпуска: 2012
Страна: Великобритания
Жанр: Документальный фильм
Продолжительность: 00:52:03
Перевод: Субтитры
Русские субтитры: есть
Режиссер: Крис Коуи / Chris Cowey
Описание: Режиссер Крис Коуи / Chris Cowey, Великобритания, 2012
Документальный фильм о зарождении величайшего коллектива в истории поп-музыки. В картине использованы редкие любительские съемки и фотографии.
SATRip от : Твид
Доп. информация: Любезно предоставлено клубом Fenix
Сэмпл: http://multi-up.com/805987
Качество: SATRip
Формат: AVI
Видео кодек: XviD
Аудио кодек: MP3
Видео: XviD, 950 kb/s, 672x512, 25 fps, 0.110 bits/pixel
Аудио: 0x0055(MP3) ID'd as MPEG-1 Layer 3, 128 kb/s (2/ch, stereo) CBR, 48000 Hz - Английский

MediaInfo

Общее
Полное имя : D:\FILMS\Stat' ... Bitlz.SAT-rip.by.Твид.fenixclub.avi
Формат : AVI
Формат/Информация : Audio Video Interleave
Размер файла : 404 Мбайт
Продолжительность : 52 м.
Общий поток : 1084 Кбит/сек
Программа кодирования : VirtualDubMod 1.5.10.2 (build 2540/release)
Библиотека кодирования : VirtualDubMod build 2540/release
Видео
Идентификатор : 0
Формат : MPEG-4 Visual
Профиль формата : Advanced Simple@L5
Параметр BVOP формата : 2
Параметр QPel формата : Нет
Параметр GMC формата : Без точки перехода
Параметр матрицы формата : Default (H.263)
Режим смешивания : Сжатый битовый поток
Идентификатор кодека : XVID
Идентификатор кодека/Подсказка : XviD
Продолжительность : 52 м.
Битрейт : 947 Кбит/сек
Ширина : 672 пикселя
Высота : 512 пикселей
Соотношение сторон : 4:3
Частота кадров : 25,000 кадров/сек
Цветовое пространство : YUV
Субдискретизация насыщенности : 4:2:0
Битовая глубина : 8 бит
Тип развёртки : Прогрессивная
Метод сжатия : С потерями
Бит/(Пиксели*Кадры) : 0.110
Размер потока : 352 Мбайт (87%)
Библиотека кодирования : XviD 1.2.1 (UTC 2008-12-04)
Аудио
Идентификатор : 1
Формат : MPEG Audio
Версия формата : Version 1
Профиль формата : Layer 3
Режим : Joint stereo
Идентификатор кодека : 55
Идентификатор кодека/Подсказка : MP3
Продолжительность : 52 м.
Вид битрейта : Постоянный
Битрейт : 128 Кбит/сек
Каналы : 2 канала
Частота : 48,0 КГц
Метод сжатия : С потерями
Размер потока : 47,7 Мбайт (12%)
Выравнивание : Разделение по промежуткам
Продолжительность промежутка : 40 мс. (1,00 видеокадр)
Время предзагрузки промежутка : 500 мс.

Скриншоты

[teatrix.ru].t16777.torrent 
Торрент: Зарегистрирован [ 2016-03-17 00:03 ] · 0FAA8611AC970F10EBDAFAC7A777CDB8BB6079D3

Скачать .torrent

Скачать

16 KB

Статус: проверено
Скачан: 0 раз
Размер: 404 MB
terms.php



Быстрый ответ

Имя:

      
Для отправки сообщений необходимо включить JavaScript
Показать сообщения:    

Текущее время: 24-Янв 12:14

Часовой пояс: UTC + 3


Вы можете начинать темы
Вы можете отвечать на сообщения
Вы не можете редактировать свои сообщения
Вы не можете удалять свои сообщения
Вы не можете голосовать в опросах
Вы не можете прикреплять файлы к сообщениям
Вы можете скачивать файлы