Харлан: В тени "Еврея Зюсса" / Harlan - Im Schatten von Jud Süss (Феликс Мёллер / Felix Moeller) [2009, Документальный фильм, SATRip]


Статистика раздачи [Обновить пиров]
Размер:  440 MB   |    Зарегистрирован:  8 месяцев 24 дня   |    Скачан:  1 раз

Полного источника не было: 16 дней

Личеров:  3  [  0 KB/s  ]   Подробная статистика пиров
 
   
 
 
 

[Цитировать]

Харлан: В тени "Еврея Зюсса" / Harlan - Im Schatten von Jud Süss
Год выпуска: 2009
Страна: Германия
Жанр: Документальный фильм
Продолжительность: 00:57:42
Перевод: Профессиональный (одноголосый)
Русские субтитры: нет
Режиссер: Феликс Мёллер / Felix Moeller
Описание: Режиссер Феликс Мёллер / Felix Moeller, Германия (при участии Финляндии)
Премьера состоялась 23 апреля 2009 года

Документальная лента, рассказывающая о создании немецкого пропагандистского фильма "Еврей Зюсс" и его режиссере Файте Харлане
SATRip от : Твид
Доп. информация: Любезно предоставлено клубом Fenix
Сэмпл: http://multi-up.com/805992
Качество: SATRip
Формат: AVI
Видео кодек: XviD
Аудио кодек: MP3
Видео: XviD, 931 kb/s, 672x512, 25 fps, 0.108 bits/pixel
Аудио: 0x0055(MP3) ID'd as MPEG-1 Layer 3, 128 kb/s (2/ch, stereo) CBR, 48000 Hz - Русский одног

MediaInfo

Общее
Полное имя : D:\FILMS\Harlan-V teni_Evreja Zjussa.SAT-rip.by.Твид.fenixclub.avi
Формат : AVI
Формат/Информация : Audio Video Interleave
Размер файла : 440 Мбайт
Продолжительность : 57 м.
Общий поток : 1065 Кбит/сек
Программа кодирования : VirtualDubMod 1.5.10.2 (build 2540/release)
Библиотека кодирования : VirtualDubMod build 2540/release
Видео
Идентификатор : 0
Формат : MPEG-4 Visual
Профиль формата : Advanced Simple@L5
Параметр BVOP формата : 2
Параметр QPel формата : Нет
Параметр GMC формата : Без точки перехода
Параметр матрицы формата : Default (H.263)
Режим смешивания : Сжатый битовый поток
Идентификатор кодека : XVID
Идентификатор кодека/Подсказка : XviD
Продолжительность : 57 м.
Битрейт : 927 Кбит/сек
Ширина : 672 пикселя
Высота : 512 пикселей
Соотношение сторон : 4:3
Частота кадров : 25,000 кадров/сек
Цветовое пространство : YUV
Субдискретизация насыщенности : 4:2:0
Битовая глубина : 8 бит
Тип развёртки : Прогрессивная
Метод сжатия : С потерями
Бит/(Пиксели*Кадры) : 0.108
Размер потока : 383 Мбайт (87%)
Библиотека кодирования : XviD 1.2.1 (UTC 2008-12-04)
Аудио
Идентификатор : 1
Формат : MPEG Audio
Версия формата : Version 1
Профиль формата : Layer 3
Режим : Joint stereo
Расширение режима : MS Stereo
Идентификатор кодека : 55
Идентификатор кодека/Подсказка : MP3
Продолжительность : 57 м.
Вид битрейта : Постоянный
Битрейт : 128 Кбит/сек
Каналы : 2 канала
Частота : 48,0 КГц
Метод сжатия : С потерями
Размер потока : 52,8 Мбайт (12%)
Выравнивание : Разделение по промежуткам
Продолжительность промежутка : 40 мс. (1,00 видеокадр)
Время предзагрузки промежутка : 500 мс.

Скриншоты

[teatrix.ru].t16779.torrent 
Торрент: Зарегистрирован [ 2016-03-17 00:03 ] · F9A8DEA746829A666379D0E9F70617F332617E37

Скачать .torrent

Скачать

18 KB

Статус: проверено
Скачан: 1 раз
Размер: 440 MB
terms.php



Показать сообщения:    

Текущее время: 10-Дек 04:09

Часовой пояс: UTC + 3


Вы не можете начинать темы
Вы не можете отвечать на сообщения
Вы не можете редактировать свои сообщения
Вы не можете удалять свои сообщения
Вы не можете голосовать в опросах
Вы не можете прикреплять файлы к сообщениям
Вы можете скачивать файлы