Генерал армии Золушек (Людмила Снигирева) [2012, Документальный, SATRip]


Статистика раздачи [Обновить пиров]
Размер:  615 MB   |    Зарегистрирован:  10 месяцев 6 дней   |    Скачан:  0 раз

Полного источника не было: Никогда

Личеров:  3  [  0 KB/s  ]   Подробная статистика пиров
 
   
 
 
 

[Цитировать]

Генерал армии Золушек
Год выпуска: 2012
Страна: Россия
Жанр: Документальный
Продолжительность: 00:50:29
Перевод: Не требуется
Русские субтитры: нет
Режиссер: Людмила Снигирева
Описание: В ноябре продюсер самого популярного женского трио "ВИАГра" Константин Меладзе заявил о закрытии проекта...
Но всего через неделю он передумал и объявил о новом кастинге в группу, в котором сможет принять участие любая девушка из России, Украины и Казахстана. Станет ли "ВИАГра" самой долгоиграющей группой за всю историю российской эстрады? Ведь ей уже 13 лет, и за это время в группе сменилось 13 солисток.
Ни для кого не секрет, что "ВИАГра" стала эффективным социальным лифтом для золушек из провинции. Создатель группы Константин Меладзе, который лично отбирал в группу девушек, не просто помогал им раскрыть талант, а "лепил" из них как из пластилина "идеальных" артисток. Как Пигмалион, он учил их разговаривать, одеваться, двигаться, заставлял читать книги, ввел строгий режим без алкоголя, встреч с мужчинами и развлечений. Сегодня он полностью разочаровался в этой идее. Почему? И чего он хочет теперь? Возобновит ли он работу социального лифта под названием "ВИАГра"? Действительно ли каждая девушка получит шанс стать солисткой прославленной группы? И захотят ли этого девушки, когда узнают об обратной стороне и цене этой славы? Ведь за 13 лет лишь 3 солистки покинули группу добровольно, остальных Меладзе уволил после скандалов с другими участницами.

Качество: SATRip
Формат: AVI
Видео кодек: DivX
Аудио кодек: MP3
Видео: DivX 5 704x400 (16:9) 25.00fps Bit rate 1502 Kbps Bits/(Pixel*Frame) 0.213
Аудио: МР3 48000Hz 2ch 192Kbps

MediaInfo

General
Complete name : D:\Torrent\Генерал армии Золушек.avi
Format : AVI
Format/Info : Audio Video Interleave
File size : 615 MiB
Duration : 50mn 29s
Overall bit rate : 1 704 Kbps
Writing library : VirtualDub build 32842/release
Video
ID : 0
Format : MPEG-4 Visual
Format settings, BVOP : Yes
Format settings, QPel : No
Format settings, GMC : No warppoints
Format settings, Matrix : Default (H.263)
Muxing mode : Packed bitstream
Codec ID : DX50
Codec ID/Hint : DivX 5
Duration : 50mn 29s
Bit rate : 1 502 Kbps
Width : 704 pixels
Height : 400 pixels
Display aspect ratio : 16:9
Frame rate : 25.000 fps
Color space : YUV
Chroma subsampling : 4:2:0
Bit depth : 8 bits
Scan type : Progressive
Bits/(Pixel*Frame) : 0.213
Stream size : 542 MiB (88%)
Writing library : DivX 6.8.5 (UTC 2009-08-20)
Audio
ID : 1
Format : MPEG Audio
Format version : Version 1
Format profile : Layer 3
Mode : Joint stereo
Codec ID : 55
Codec ID/Hint : MP3
Duration : 50mn 29s
Bit rate mode : Constant
Bit rate : 192 Kbps
Channel(s) : 2 channels
Sampling rate : 48.0 KHz
Stream size : 69.3 MiB (11%)
Alignment : Split accross interleaves
Interleave, duration : 40 ms (1.00 video frame)
Interleave, preload duration : 500 ms

Скриншоты

[teatrix.ru].t16781.torrent 
Торрент: Зарегистрирован [ 2016-03-17 00:03 ] · 673D5DCA21905AC78F62CA2723193D391BBEB7EC

Скачать .torrent

Скачать

13 KB

Статус: проверено
Скачан: 0 раз
Размер: 615 MB
terms.php



Быстрый ответ

Имя:

      
Для отправки сообщений необходимо включить JavaScript
Показать сообщения:    

Текущее время: 24-Янв 00:00

Часовой пояс: UTC + 3


Вы можете начинать темы
Вы можете отвечать на сообщения
Вы не можете редактировать свои сообщения
Вы не можете удалять свои сообщения
Вы не можете голосовать в опросах
Вы не можете прикреплять файлы к сообщениям
Вы можете скачивать файлы