Счастливых Кеннеди не бывает / Клан Кеннеди / Il n'y a pas de Kennedy heureux / Die Kennedys - Das Ende der Unschuld (Патрик Жёди / Patrick Jeudy) [2010, документальный, исторический, DVB] Original (Fre) + Sub (Rus, Fre)


Статистика раздачи [Обновить пиров]
Размер:  2.18 GB   |    Зарегистрирован:  8 месяцев 20 дней   |    Скачан:  0 раз

Полного источника не было: Никогда

Личеров:  3  [  0 KB/s  ]   Подробная статистика пиров
 
   
 
 
 

[Цитировать]

Счастливых Кеннеди не бывает
Il n'y a pas de Kennedy heureux- Год выпуска: 2010
Страна: Франция
Жанр: документальный, исторический
Продолжительность: 01:36:45
Перевод: Субтитры (русский перевод А.Вижье, Éclair Group/TELETOTA)
Русские субтитры: есть
Формат субтитров: prerendered (IDX+SUB)
Доп. информация о субтитрах: русские, французские, румынкие
Оригинальная аудиодорожка: французский
Режиссер: Патрик Жёди / Patrick Jeudy
Телеканал: TV5MONDE Europe
Описание: Вашему вниманию предлагается исследование и развенчание мифа клана Кеннеди.
Апрель 1984 года. Умер один из Кеннеди. Его оплакивает вся семья. Не тот Кеннеди, о котором вы подумали. Не президент США Джон Фитцджеральд и не его брат Бобби, убитый несколькими годами позже. Этот Кеннеди принадлежал к следующему поколению. Он первым из детей Кеннеди трагически погиб. Первое, о чем мы подумали: "Неужели он тоже проклят?" Мы, гувернантки, вырастившие их, уже давно чувствовали, что дети клана Кеннеди получили в наследство смерть. Дэвид, которого свели в могилу наркотики, был похоронен в родовом гнезде Кеннеди. Он имел обыкновение говорить: "Даже если клан решит стереть меня с фотографий, я никогда не буду таким, как отец: достойным продолжателем мифа". (из предисловия к фильму)
Доп. информация: Hot Bird (13.0°E) DVB-S

Качество: DVB
Формат: MKV
Видео: MPEG Video 2, 720x576@1024x576 (16:9), 25 fps, ~2965 kbps avg, 0.286 bit/pixel
Аудио: MPEG Audio 2, 2 ch, 48 kHz, 192.00 kbps - французский

MediaInfo

Общее
Уникальный идентификатор : 201837734146894985002478714490907966621 (0x97D8889AAB87BE91B24D4181FDCEBC9D)
Полное имя : F:\My Torrents 3\[apreder]Il_n'y_a_pas_de_Kennedy_heureux(2010)DVB.mkv
Формат : Matroska
Версия формата : Version 2
Размер файла : 2,18 Гбайт
Продолжительность : 1 ч. 36 м.
Режим общего битрейта : Переменный
Общий поток : 3221 Кбит/сек
Дата кодирования : UTC 2015-10-09 15:56:37
Программа кодирования : mkvmerge v8.4.0 ('A better way to fly') 64bit
Библиотека кодирования : libebml v1.3.1 + libmatroska v1.4.2
Attachements : cover.jpg / cover_small.jpg
TITLE : Il n'y a pas de Kennedy heureux
IMDB : tt1887771
DATE_RELEASED : 2010-00-00
LAW_RATING : 16+
GENRE : Documentary
KEYWORDS : rutracker.org
Видео
Идентификатор : 1
Формат : MPEG Video
Версия формата : Version 2
Профиль формата : Main@Main
Параметр BVOP формата : Да
Параметр матрицы формата : Выборочная
Параметр GOP формата : M=4, N=4
Format_Settings_PictureStructure : Frame
Идентификатор кодека : V_MPEG2
Идентификатор кодека/Информация : MPEG 1 or 2 Video
Продолжительность : 1 ч. 36 м.
Вид битрейта : Переменный
Битрейт : 2965 Кбит/сек
Ширина : 720 пикселей
Высота : 576 пикселей
Соотношение сторон : 16:9
Режим частоты кадров : Постоянный
Частота кадров : 25,000 кадров/сек
Стандарт вещания : PAL
Цветовое пространство : YUV
Субдискретизация насыщенности : 4:2:0
Битовая глубина : 8 бит
Тип развёртки : Чересстрочная
Порядок развёртки : Верхнее поле первое
Метод сжатия : С потерями
Бит/(Пиксели*Кадры) : 0.286
Временной код первого кадра : 00:00:00:00
Оригинал временного кода : Group of pictures header
Размер потока : 2,00 Гбайт (92%)
Default : Да
Forced : Нет
Аудио
Идентификатор : 2
Формат : MPEG Audio
Версия формата : Version 1
Профиль формата : Layer 2
Режим : Joint stereo
Расширение режима : Intensity Stereo + MS Stereo
Идентификатор кодека : A_MPEG/L2
Идентификатор кодека/Подсказка : MP2
Продолжительность : 1 ч. 36 м.
Вид битрейта : Постоянный
Битрейт : 192 Кбит/сек
Каналы : 2 канала
Частота : 48,0 КГц
Метод сжатия : С потерями
Размер потока : 133 Мбайт (6%)
Язык : French
Default : Да
Forced : Нет
Текст #1
Идентификатор : 3
Формат : VobSub
Идентификатор кодека : S_VOBSUB
Идентификатор кодека/Информация : Picture based subtitle format used on DVDs
Язык : Russian
Default : Да
Forced : Нет
Текст #2
Идентификатор : 4
Формат : VobSub
Идентификатор кодека : S_VOBSUB
Идентификатор кодека/Информация : Picture based subtitle format used on DVDs
Язык : French
Default : Нет
Forced : Нет
Текст #3
Идентификатор : 5
Формат : VobSub
Идентификатор кодека : S_VOBSUB
Идентификатор кодека/Информация : Picture based subtitle format used on DVDs
Язык : Romanian
Default : Нет
Forced : Нет

Скриншоты


Резервные скриншоты


- [526]
[teatrix.ru].t16791.torrent 
Торрент: Зарегистрирован [ 2016-03-17 00:03 ] · 22E724B0ACFD90937D96E4A515DD9940C78A4217

Скачать .torrent

Скачать

11 KB

Статус: проверено
Скачан: 0 раз
Размер: 2.18 GB
terms.php



Быстрый ответ

Имя:

      
Для отправки сообщений необходимо включить JavaScript
Показать сообщения:    

Текущее время: 06-Дек 15:11

Часовой пояс: UTC + 3


Вы можете начинать темы
Вы можете отвечать на сообщения
Вы не можете редактировать свои сообщения
Вы не можете удалять свои сообщения
Вы не можете голосовать в опросах
Вы не можете прикреплять файлы к сообщениям
Вы можете скачивать файлы