Пласидо Доминго. Проклятье оперы / Placido Domingo (Филипп Сурков) [2010, документальный, творческая биография, DVB]


Статистика раздачи [Обновить пиров]
Размер:  931 MB   |    Зарегистрирован:  8 месяцев 19 дней   |    Скачан:  0 раз

Полного источника не было: Никогда

Личеров:  3  [  0 KB/s  ]   Подробная статистика пиров
 
   
 
 
 

[Цитировать]

Пласидо Доминго
Проклятье оперы- Год выпуска: 2010
Страна: Россия
Жанр: документальный, творческая биография
Продолжительность: 00:39:01
Перевод: Не требуется
Русские субтитры: нет
Режиссер: Филипп Сурков
Описание: Три великих тенора второй половины ХХ века - Хосе Каррерас, Лучано Паваротти, Пласидо Доминго - то, что произошло с ними, пресса окрестила "проклятьем оперы".
1987 год. На вершине творческой карьеры Хосе Каррерас был госпитализирован со страшным диагнозом "острая лейкемия". После сложного лечения болезнь удалось победить.
2007 год, 6 сентября в своем доме в итальянском городе Модена от рака поджелудочной железы скончался Лучано Паваротти.
8 июня 2010 года. В одну из нью-йоркских клиник госпитализирован Пласидо Доминго. Диагноз "рак кишечника". Миллионы людей во всем мире приняли эту новость близко к сердцу.
Словно злой рок висел над обладателями лучших голосов планеты.
Как минимум два последних десятилетия Пласидо Доминго является символом оперного искусства высочайшего класса. Даже абсолютно равнодушные к опере люди знают это имя и относятся к нему с почтением. (из предисловия к фильму)
Доп. информация: запись со спутника (канал "Кто есть кто").
Сэмпл: http://multi-up.com/809432
Качество: DVB
Формат: MPEG-PS
Видео кодек: MPEG2
Аудио кодек: MP2
Видео: MPEG Video 2, 720x576@768x576 (4:3), 25 fps, ~3076 kbps avg, 0.297 bit/pixel
Аудио: 48 kHz, MPEG Audio 2, 2 ch, ~192.00 kbps avg

MediaInfo

Полное имя                               : H:\My Torrents\[apreder]Placido_Domingo(2010)DVB.mpg
Формат : MPEG-PS
Размер файла : 931 Мбайт
Продолжительность : 39 м.
Режим общего битрейта : Переменный
Общий поток : 3334 Кбит/сек
Видео
Идентификатор : 224 (0xE0)
Формат : MPEG Video
Версия формата : Version 2
Профиль формата : Main@Main
Параметр BVOP формата : Да
Параметр матрицы формата : Выборочная
Продолжительность : 39 м.
Вид битрейта : Переменный
Битрейт : 3076 Кбит/сек
Ширина : 720 пикселей
Высота : 576 пикселей
Соотношение сторон : 4:3
Частота кадров : 25,000 кадров/сек
Стандарт вещания : PAL
Цветовое пространство : YUV
Субдискретизация насыщенности : 4:2:0
Битовая глубина : 8 бит
Тип развёртки : Чересстрочная
Порядок развёртки : Верхнее поле первое
Метод сжатия : С потерями
Бит/(Пиксели*Кадры) : 0.297
Размер потока : 859 Мбайт (92%)
Аудио
Идентификатор : 192 (0xC0)
Формат : MPEG Audio
Версия формата : Version 1
Профиль формата : Layer 2
Продолжительность : 39 м.
Вид битрейта : Постоянный
Битрейт : 192 Кбит/сек
Каналы : 2 канала
Частота : 48,0 КГц
Метод сжатия : С потерями
Размер потока : 53,6 Мбайт (6%)

Скриншоты


Скриншоты анаморфированные


-530/512√
[teatrix.ru].t16795.torrent 
Торрент: Зарегистрирован [ 2016-03-17 00:06 ] · BEB6A2703069396F578C718CD79F98EBCBEC3EDE

Скачать .torrent

Скачать

19 KB

Статус: проверено
Скачан: 0 раз
Размер: 931 MB
terms.php



Быстрый ответ

Имя:

      
Для отправки сообщений необходимо включить JavaScript
Показать сообщения:    

Текущее время: 05-Дек 01:25

Часовой пояс: UTC + 3


Вы можете начинать темы
Вы можете отвечать на сообщения
Вы не можете редактировать свои сообщения
Вы не можете удалять свои сообщения
Вы не можете голосовать в опросах
Вы не можете прикреплять файлы к сообщениям
Вы можете скачивать файлы