Непутевая Софи / В поисках Софи Лорен / Cercando Sophia / Buscando a Sophia / Looking for Sophia (Роберто Олла / Roberto Olla, Данила Сатта / Danila Satta) [2004, документальный, биография, DVB] DVO (СПб, 5-й канал)


Статистика раздачи [Обновить пиров]
Размер:  1.75 GB   |    Зарегистрирован:  8 месяцев 18 дней   |    Скачан:  0 раз

Полного источника не было: Никогда

Личеров:  3  [  0 KB/s  ]   Подробная статистика пиров
 
   
 
 
 

[Цитировать]

Непутёвая Софи / В поисках Софи Лорен
Cercando Sophia / Buscando a Sophia / Looking for Sophia- Год выпуска: 2004
Страна: Италия, Германия, Нидерланды
Жанр: документальный, биография
Продолжительность: 00:52:23
Перевод: Профессиональный (двухголосый) (отдел дублирования ТРК "Петербург. Пятый канал")
Русские субтитры: нет
Режиссер: Роберто Олла / Roberto Olla, Данила Сатта / Danila Satta
Описание: Великая актриса ХХ века Софи Лорен рассказывает о своей жизни... О детстве, юности, о первой любви и, конечно же, о ее самой большой любви - кинематографе.
Она была эталоном чувственности и символом материнства. Софи Лорен снялась едва ли не в самой известной сцене стриптиза, а сыграв несчастную мать, стала единственной актрисой, которая получила "Оскар" за лучшую женскую роль в фильме на иностранном языке.
Чтобы выяснить, как актриса стала мечтой миллионов – придется окунуться в прошлое. Ведь биография итальянской примы хранит множество вопросов.
Как любовь заставила ее поменять родное гражданство? Почему Софи Лорен, готовая пожертвовать своей карьерой ради рождения детей, так долго не могла испытать радость материнства? И почему выйдя из тюрьмы, куда она попала за сокрытие налогов, великая актриса стала еще популярнее?
Доп. информация: Собственная запись со спутника (канал "Кто есть кто"). Во время интервью не на итальянском языке на экране вшитые итальянские субтитры. В отличие от имеющегося на трекере TVRip в данной раздаче несжатый цифровой поток со значительно лучшим качеством звука.
Сэмпл: DVB сравнение TVRip
Качество: DVB
Формат: MPEG-PS
Видео кодек: MPEG2
Аудио кодек: MP2
Видео: MPEG Video 2, 720x576@768x576 (4:3), 25 fps, ~4492 kbps avg, 0.433 bit/pixel
Аудио: 48 kHz, MPEG Audio 2, 2 ch, ~192.00 kbps avg

MediaInfo

Полное имя                               : H:\My Torrents\[apreder]Cercando_Sophia(2004)DVB.mpg
Формат : MPEG-PS
Размер файла : 1,75 Гбайт
Продолжительность : 52 м.
Режим общего битрейта : Переменный
Общий поток : 4779 Кбит/сек
Видео
Идентификатор : 224 (0xE0)
Формат : MPEG Video
Версия формата : Version 2
Профиль формата : Main@Main
Параметр BVOP формата : Да
Параметр матрицы формата : Выборочная
Параметр GOP формата : M=3, N=36
Продолжительность : 52 м.
Вид битрейта : Переменный
Битрейт : 4492 Кбит/сек
Ширина : 720 пикселей
Высота : 576 пикселей
Соотношение сторон : 4:3
Частота кадров : 25,000 кадров/сек
Стандарт вещания : PAL
Цветовое пространство : YUV
Субдискретизация насыщенности : 4:2:0
Битовая глубина : 8 бит
Тип развёртки : Чересстрочная
Порядок развёртки : Верхнее поле первое
Метод сжатия : С потерями
Бит/(Пиксели*Кадры) : 0.433
Размер потока : 1,64 Гбайт (94%)
Аудио
Идентификатор : 192 (0xC0)
Формат : MPEG Audio
Версия формата : Version 1
Профиль формата : Layer 2
Продолжительность : 52 м.
Вид битрейта : Постоянный
Битрейт : 192 Кбит/сек
Каналы : 2 канала
Частота : 48,0 КГц
Метод сжатия : С потерями
Размер потока : 72,0 Мбайт (4%)

Скриншоты


Скриншоты анаморфированные


-531/513√
[teatrix.ru].t16796.torrent 
Торрент: Зарегистрирован [ 2016-03-17 00:06 ] · FE2A0F8DB2E5A3AC86946891997EB896FCD7D0AE

Скачать .torrent

Скачать

18 KB

Статус: проверено
Скачан: 0 раз
Размер: 1.75 GB
terms.php



Показать сообщения:    

Текущее время: 04-Дек 15:17

Часовой пояс: UTC + 3


Вы не можете начинать темы
Вы не можете отвечать на сообщения
Вы не можете редактировать свои сообщения
Вы не можете удалять свои сообщения
Вы не можете голосовать в опросах
Вы не можете прикреплять файлы к сообщениям
Вы можете скачивать файлы