Эд Харди татуирует мир / Ed Hardy: Tattoo the World (Эмико Омори) [2011, Документальный, TVRip] Sub Rus


Статистика раздачи [Обновить пиров]
Размер:  539 MB   |    Зарегистрирован:  8 месяцев 25 дней   |    Скачан:  1 раз

Полного источника не было: 7 месяцев 18 дней

Личеров:  3  [  0 KB/s  ]   Подробная статистика пиров
 
   
 
 
 

[Цитировать]

Эд Харди татуирует мир / Ed Hardy: Tattoo the World
Год выпуска: 2011
Страна: США
Жанр: Документальный
Продолжительность: 00:52:26
Перевод: Субтитры
Русские субтитры: есть
Режиссер: Эмико Омори
Описание: Эд Харди (Ed Hardy) своим ремеслом занимается уже свыше 40 лет. В своих работах Харди смешивает американские, мексиканские, японские мотивы. Самые знаменитые из его работ выставлены в Сан-Франциско, Гонолулу и в Колорадском Университете. Несмотря на свой ошеломительный успех в определенных кругах, Эд Харди не мог и мечтать о создании известной на весь мир торговой марки. Только после встречи с французским дизайнером Кристианом Одижье, вдохновленным идеей перенести винтажные татуировки на одежду и обувь, мечта обрела реальные очертания. Сегодня Ed Hardy - это раскрученный бренд, который знают во всем мире. Эд Харди вместе со своим именитым компаньоном создают одежду и обувь не только для знаменитостей, но и рядовых представителей городских субкультур. Одежду этой марки предпочитают яркие и нестандартные личности, которые любят эпатаж.
Релиз группы:
Доп. информация: Запись с канала "Аруц 8". Фильм на английском языке с двойными субтитрами (вшитыми) на русском языке и иврите. Перевод на русский язык: Геня Меиров. Субтитры: Транс Тайтлс ЛТД.
Качество: TVRip
Формат: AVI
Видео кодек: DivX
Аудио кодек: MP3
Видео: 1300 Кbps, 640Х480 (4:3), at 25.000 fps, MPEG-4 Visual (DivX 5) (Packed bitstream)(BVOP)
Аудио: 128 Kbps, 48.0 KHz, 2 channels, MPEG Audio (MP3) (Version 1) (Layer 3) (Joint stereo/MS Stereo)

MediaInfo

General
Complete name : D:\Ed Hardy Tattoo the World.avi
Format : AVI
Format/Info : Audio Video Interleave
File size : 539 MiB
Duration : 52mn 26s
Overall bit rate : 1 437 Kbps
Writing library : VirtualDub-MPEG2 build 24600/release
Video
ID : 0
Format : MPEG-4 Visual
Format settings, BVOP : 1
Format settings, QPel : No
Format settings, GMC : No warppoints
Format settings, Matrix : Default (H.263)
Muxing mode : Packed bitstream
Codec ID : DX50
Codec ID/Hint : DivX 5
Duration : 52mn 26s
Bit rate : 1 300 Kbps
Width : 640 pixels
Height : 480 pixels
Display aspect ratio : 4:3
Frame rate : 25.000 fps
Color space : YUV
Chroma subsampling : 4:2:0
Bit depth : 8 bits
Scan type : Progressive
Compression mode : Lossy
Bits/(Pixel*Frame) : 0.169
Stream size : 487 MiB (90%)
Writing library : DivX 6.8.5 (UTC 2009-08-20)
Audio
ID : 1
Format : MPEG Audio
Format version : Version 1
Format profile : Layer 3
Mode : Joint stereo
Mode extension : MS Stereo
Codec ID : 55
Codec ID/Hint : MP3
Duration : 52mn 26s
Bit rate mode : Constant
Bit rate : 128 Kbps
Channel(s) : 2 channels
Sampling rate : 48.0 KHz
Compression mode : Lossy
Stream size : 48.0 MiB (9%)
Alignment : Split accross interleaves
Interleave, duration : 40 ms (1.00 video frame)
Interleave, preload duration : 500 ms

Скриншоты

[teatrix.ru].t16798.torrent 
Торрент: Зарегистрирован [ 2016-03-17 00:06 ] · 77F782F899C632DCCA3FE734F3D66BED455605CA

Скачать .torrent

Скачать

1 KB

Статус: проверено
Скачан: 1 раз
Размер: 539 MB
terms.php



Быстрый ответ

Имя:

      
Для отправки сообщений необходимо включить JavaScript
Показать сообщения:    

Текущее время: 11-Дек 09:11

Часовой пояс: UTC + 3


Вы можете начинать темы
Вы можете отвечать на сообщения
Вы не можете редактировать свои сообщения
Вы не можете удалять свои сообщения
Вы не можете голосовать в опросах
Вы не можете прикреплять файлы к сообщениям
Вы можете скачивать файлы