Тайны советского кино. Большая перемена (Максим Володин) [2012, Документальный цикл, познавательный, DVB]


Статистика раздачи [Обновить пиров]
Размер:  677 MB   |    Зарегистрирован:  8 месяцев 24 дня   |    Скачан:  0 раз

Полного источника не было: Никогда

Личеров:  3  [  0 KB/s  ]   Подробная статистика пиров
 
   
 
 
 

[Цитировать]

Тайны советского кино. Большая перемена
Год выпуска: 2012
Страна: Россия, ООО "Студия Ивана Усачёва"
Жанр: Документальный цикл, познавательный
Продолжительность: 00:26:00
Перевод: Не требуется
Русские субтитры: нет
Режиссер: Максим Володин
Описание: Как сложились судьбы актеров известной комедии? Правда ли, что большинство из них умерли в нищете и безвестности? Что значил этот фильм для Савелия Крамарова? Принимают участие: А.Мукасей, Н.Маслова, В.Проскурин, Г.Садовников, С.Крючкова, Л.Дуров, В.Талызина, И.Баскин, Н.Гвоздикова.
Сэмпл: http://multi-up.com/810796
качество: DVB
формат: MPEG-PS
видеокодек: MPEG2
аудиокодек: MP2
Видео: MPEG-2 Video, 720x576 (4:3), 25 fps, 3 400 Kbps, 0.33 bit/pixel
Аудио: Russian: 48 kHz, MPEG Audio, 2 ch, 192 kbps

MediaInfo

General
Complete name : C:Тайны советского кино. Большая перемена.mpg
Format : MPEG-PS
File size : 677 MiB
Duration : 26mn 0s
Overall bit rate mode : Variable
Overall bit rate : 3 639 Kbps
Video
ID : 224 (0xE0)
Format : MPEG Video
Format version : Version 2
Format profile : Main@Main
Format settings, BVOP : Yes
Format settings, Matrix : Custom
Format settings, GOP : M=1, N=18
Duration : 26mn 0s
Bit rate mode : Variable
Bit rate : 3 400 Kbps
Width : 720 pixels
Height : 576 pixels
Display aspect ratio : 4:3
Frame rate : 25.000 fps
Standard : PAL
Color space : YUV
Chroma subsampling : 4:2:0
Bit depth : 8 bits
Scan type : Interlaced
Scan order : Top Field First
Compression mode : Lossy
Bits/(Pixel*Frame) : 0.328
Stream size : 628 MiB (93%)
Audio
ID : 192 (0xC0)
Format : MPEG Audio
Format version : Version 1
Format profile : Layer 2
Duration : 26mn 0s
Bit rate mode : Constant
Bit rate : 192 Kbps
Channel(s) : 2 channels
Sampling rate : 48.0 KHz
Compression mode : Lossy
Stream size : 35.7 MiB (5%)

Скриншоты

[teatrix.ru].t16803.torrent 
Торрент: Зарегистрирован [ 2016-03-17 00:06 ] · 70763C2CBD240D12EF50CB74D04BD818DC1CD50E

Скачать .torrent

Скачать

14 KB

Статус: проверено
Скачан: 0 раз
Размер: 677 MB
terms.php



Показать сообщения:    

Текущее время: 10-Дек 09:59

Часовой пояс: UTC + 3


Вы не можете начинать темы
Вы не можете отвечать на сообщения
Вы не можете редактировать свои сообщения
Вы не можете удалять свои сообщения
Вы не можете голосовать в опросах
Вы не можете прикреплять файлы к сообщениям
Вы можете скачивать файлы