(Pop-Opera) Vincent Niclo & Les Choeurs de l'Armée Rouge (Венсан Никло и Хор Красной Армии) - Opera Rouge - 2012, FLAC (tracks+.cue) lossless


 

[Цитировать]

Vincent Niclo & Les Choeurs de l'Armée Rouge (Венсан Никло и Хор Красной Армии) / Opera Rouge
Жанр: Pop-Opera
Страна-производитель диска: Франция
Год издания диска: 2012
Страна: Франция
Аудиокодек: FLAC
Тип рипа: tracks+.cue
Битрейт аудио: lossless
Продолжительность: 00:36:16
Источник: скачано с
сайт-источник/ник/другое: NZT
Наличие сканов в содержимом раздачи: нет
Треклист:
01. Ameno 03:09
02. Carmina Burana (O Fortuna) 02:46
03. Adagio 04:18
04. Funiculi Funicula 02:50
05. Caruso 05:02
06. Libiamo Ne Lieti Calici 03:14
07. Non Ho Mai 04:01
08. Nessun Dorma 03:10
09. Perche 03:29
10. La Marseillaise 04:06
http://www.youtube.com/watch?v=lWOJ9WJlaxE

Лог создания рипа

Exact Audio Copy V0.99 prebeta 5 from 4. May 2009
EAC extraction logfile from 13. November 2012, 21:06
Vincent Niclo / Opйra Rouge
Used drive : LITE-ON DVD+RW SOHW-802S Adapter: 1 ID: 0
Read mode : Secure
Utilize accurate stream : Yes
Defeat audio cache : Yes
Make use of C2 pointers : No
Read offset correction : 12
Overread into Lead-In and Lead-Out : No
Fill up missing offset samples with silence : Yes
Delete leading and trailing silent blocks : No
Null samples used in CRC calculations : Yes
Used interface : Installed external ASPI interface
Gap handling : Appended to previous track
Used output format : User Defined Encoder
Selected bitrate : 1024 kBit/s
Quality : High
Add ID3 tag : No
Command line compressor : C:\Program Files\Exact Audio Copy\Flac\flac.exe
Additional command line options : -8 -V -T "ARTIST=%a" -T "TITLE=%t" -T "ALBUM=%g" -T "DATE=%y" -T "TRACKNUMBER=%n" -T "GENRE=%m" -T "COMMENT=NZT" %s
TOC of the extracted CD
Track | Start | Length | Start sector | End sector
---------------------------------------------------------
1 | 0:00.00 | 3:10.18 | 0 | 14267
2 | 3:10.18 | 2:47.34 | 14268 | 26826
3 | 5:57.52 | 4:19.64 | 26827 | 46315
4 | 10:17.41 | 2:51.63 | 46316 | 59203
5 | 13:09.29 | 5:03.57 | 59204 | 81985
6 | 18:13.11 | 3:15.42 | 81986 | 96652
7 | 21:28.53 | 4:02.21 | 96653 | 114823
8 | 25:30.74 | 3:11.41 | 114824 | 129189
9 | 28:42.40 | 3:30.37 | 129190 | 144976
10 | 32:13.02 | 4:07.46 | 144977 | 163547
Track 1
Filename Z:\home\ennzedtee\Musique\Vincent Niclo & Les Choeurs de l'Armйe Rouge-Opera Rouge-CD-FLAC-2012\01 - Ameno.wav
Pre-gap length 0:00:02.00
Peak level 98.8 %
Track quality 99.9 %
Test CRC 933F8974
Copy CRC 933F8974
Track not present in AccurateRip database
Copy OK
Track 2
Filename Z:\home\ennzedtee\Musique\Vincent Niclo & Les Choeurs de l'Armйe Rouge-Opera Rouge-CD-FLAC-2012\02 - Carmina Burana.wav
Pre-gap length 0:00:02.00
Peak level 99.4 %
Track quality 100.0 %
Test CRC FAF8E2EF
Copy CRC FAF8E2EF
Track not present in AccurateRip database
Copy OK
Track 3
Filename Z:\home\ennzedtee\Musique\Vincent Niclo & Les Choeurs de l'Armйe Rouge-Opera Rouge-CD-FLAC-2012\03 - Adagio.wav
Pre-gap length 0:00:02.00
Peak level 100.0 %
Track quality 100.0 %
Test CRC CD6E559F
Copy CRC CD6E559F
Track not present in AccurateRip database
Copy OK
Track 4
Filename Z:\home\ennzedtee\Musique\Vincent Niclo & Les Choeurs de l'Armйe Rouge-Opera Rouge-CD-FLAC-2012\04 - Funiculi funicula.wav
Pre-gap length 0:00:02.00
Peak level 99.4 %
Track quality 100.0 %
Test CRC 792B6E8E
Copy CRC 792B6E8E
Track not present in AccurateRip database
Copy OK
Track 5
Filename Z:\home\ennzedtee\Musique\Vincent Niclo & Les Choeurs de l'Armйe Rouge-Opera Rouge-CD-FLAC-2012\05 - Caruso.wav
Pre-gap length 0:00:02.00
Peak level 99.4 %
Track quality 100.0 %
Test CRC 6577E35F
Copy CRC 6577E35F
Track not present in AccurateRip database
Copy OK
Track 6
Filename Z:\home\ennzedtee\Musique\Vincent Niclo & Les Choeurs de l'Armйe Rouge-Opera Rouge-CD-FLAC-2012\06 - Libiamo ne lieti calici.wav
Pre-gap length 0:00:02.00
Peak level 98.8 %
Track quality 100.0 %
Test CRC DF17294B
Copy CRC DF17294B
Track not present in AccurateRip database
Copy OK
Track 7
Filename Z:\home\ennzedtee\Musique\Vincent Niclo & Les Choeurs de l'Armйe Rouge-Opera Rouge-CD-FLAC-2012\07 - Non ho mai.wav
Pre-gap length 0:00:02.00
Peak level 99.4 %
Track quality 100.0 %
Test CRC 109D976B
Copy CRC 109D976B
Track not present in AccurateRip database
Copy OK
Track 8
Filename Z:\home\ennzedtee\Musique\Vincent Niclo & Les Choeurs de l'Armйe Rouge-Opera Rouge-CD-FLAC-2012\08 - Nessun dorma.wav
Pre-gap length 0:00:02.00
Peak level 99.4 %
Track quality 100.0 %
Test CRC E2E84633
Copy CRC E2E84633
Track not present in AccurateRip database
Copy OK
Track 9
Filename Z:\home\ennzedtee\Musique\Vincent Niclo & Les Choeurs de l'Armйe Rouge-Opera Rouge-CD-FLAC-2012\09 - Perche.wav
Pre-gap length 0:00:02.00
Peak level 99.4 %
Track quality 99.9 %
Test CRC 052A5722
Copy CRC 052A5722
Track not present in AccurateRip database
Copy OK
Track 10
Filename Z:\home\ennzedtee\Musique\Vincent Niclo & Les Choeurs de l'Armйe Rouge-Opera Rouge-CD-FLAC-2012\10 - La Marseillaise.wav
Pre-gap length 0:00:02.00
Peak level 99.4 %
Track quality 100.0 %
Test CRC 80C3DFE4
Copy CRC 80C3DFE4
Track not present in AccurateRip database
Copy OK
None of the tracks are present in the AccurateRip database
No errors occurred
End of status report

Содержание индексной карты (.CUE)

REM GENRE Classical
REM DATE 2012
REM DISCID 8608840A
REM COMMENT "ExactAudioCopy v0.99pb5"
PERFORMER "Vincent Niclo"
TITLE "Opйra Rouge"
FILE "01 - Ameno.wav" WAVE
TRACK 01 AUDIO
TITLE "Ameno"
PERFORMER "Vincent Niclo"
ISRC 4043E3609361
FLAGS DCP
INDEX 01 00:00:00
TRACK 02 AUDIO
TITLE "Carmina Burana"
PERFORMER "Vincent Niclo"
ISRC 4043E3609361
FLAGS DCP
INDEX 00 03:08:18
FILE "02 - Carmina Burana.wav" WAVE
INDEX 01 00:00:00
TRACK 03 AUDIO
TITLE "Adagio"
PERFORMER "Vincent Niclo"
ISRC 4043E3609361
FLAGS DCP
INDEX 00 02:45:34
FILE "03 - Adagio.wav" WAVE
INDEX 01 00:00:00
TRACK 04 AUDIO
TITLE "Funiculi funicula"
PERFORMER "Vincent Niclo"
ISRC 4043E3609361
FLAGS DCP
INDEX 00 04:17:64
FILE "04 - Funiculi funicula.wav" WAVE
INDEX 01 00:00:00
TRACK 05 AUDIO
TITLE "Caruso"
PERFORMER "Vincent Niclo"
ISRC 4043E3609361
FLAGS DCP
INDEX 00 02:49:63
FILE "05 - Caruso.wav" WAVE
INDEX 01 00:00:00
TRACK 06 AUDIO
TITLE "Libiamo ne lieti calici"
PERFORMER "Vincent Niclo"
ISRC 4043E3609361
FLAGS DCP
INDEX 00 05:01:57
FILE "06 - Libiamo ne lieti calici.wav" WAVE
INDEX 01 00:00:00
TRACK 07 AUDIO
TITLE "Non ho mai"
PERFORMER "Vincent Niclo"
ISRC 4043E3609361
FLAGS DCP
INDEX 00 03:13:42
FILE "07 - Non ho mai.wav" WAVE
INDEX 01 00:00:00
TRACK 08 AUDIO
TITLE "Nessun dorma"
PERFORMER "Vincent Niclo"
ISRC 4043E3609361
FLAGS DCP
INDEX 00 04:00:21
FILE "08 - Nessun dorma.wav" WAVE
INDEX 01 00:00:00
TRACK 09 AUDIO
TITLE "Perche"
PERFORMER "Vincent Niclo"
ISRC 4043E3609361
FLAGS DCP
INDEX 00 03:09:41
FILE "09 - Perche.wav" WAVE
INDEX 01 00:00:00
TRACK 10 AUDIO
TITLE "La Marseillaise"
PERFORMER "Vincent Niclo"
ISRC 4043E3609361
FLAGS DCP
INDEX 00 03:28:37
FILE "10 - La Marseillaise.wav" WAVE
INDEX 01 00:00:00



Показать сообщения:    

Текущее время: 09-Дек 22:27

Часовой пояс: UTC + 3


Вы не можете начинать темы
Вы не можете отвечать на сообщения
Вы не можете редактировать свои сообщения
Вы не можете удалять свои сообщения
Вы не можете голосовать в опросах
Вы не можете прикреплять файлы к сообщениям
Вы не можете скачивать файлы