Джеймс Бонд. Тайна агента 007 / Фильм Леонида Млечина (Екатерина Гальперина) [2013, Документальный, SATRip]


Статистика раздачи [Обновить пиров]
Размер:  456 MB   |    Зарегистрирован:  8 месяцев 19 дней   |    Скачан:  0 раз

Полного источника не было: Никогда

Личеров:  3  [  0 KB/s  ]   Подробная статистика пиров
 
   
 
 
 

[Цитировать]

Джеймс Бонд. Тайна агента 007 / Фильм Леонида Млечина -Год выпуска: 2013
Страна: Россия
Жанр: Документальный
Ведущий: Леонид Млечин
Продолжительность: 00:38:54
Перевод: Не требуется-Режиссер: Екатерина Гальперина-Текст читают: Любовь Германова и Александр Клюквин-Описание: "Он был человеком войны, и когда войны долго не было, его дух падал" - Ян Флеминг писал это про Бонда, но имел в виду самого себя.
Флеминг, автор романов о Джеймсе Бонде, шесть лет прослужил в военно-морской разведке Великобритании. В чем же секрет успеха шпионских романов, последний из которых был написан почти полвека назад?
Первые книги Бондианы вышли в свет и были экранизированы в непростое для Англии время: экономический кризис, крушение колониальной империи. Агент 007 скрасил своим соотечественникам сложные времена, когда рухнула великая Британская империя. Но всемирную известность принёс супершпиону кинематограф. При этом каждое поколение получает того Бонда, в котором нуждается. Уже пятьдесят лет Джеймс Бонд занимается на экране одним и тем же: играет в казино, покоряет сердца девушек, убивает врагов. И главное - спасает мир...
И стараниями кинематографа эта сказка для взрослых никогда не кончится.-качество: SATRip
формат: AVI
видеокодек: XviD
аудиокодек: MP3
Видео: 640x480 (1.33:1), 25 fps, XviD MPEG-4 ~1499 kbps avg
Аудио: 48 kHz, MPEG Layer 3, 2 ch, ~128.00 kbps avg

MI

Общее
Полное имя : D:\НЕ УДАЛЯТЬ!!!\Taina.agenta.007.2013.SATRip.avi
Формат : AVI
Формат/Информация : Audio Video Interleave
Размер файла : 456 Мбайт
Продолжительность : 38 м.
Общий поток : 1638 Кбит/сек
Программа кодирования : VirtualDubMod 1.5.10.2 (build 2540/release)
Библиотека кодирования : VirtualDub build 29808/release
Видео
Идентификатор : 0
Формат : MPEG-4 Visual
Профиль формата : Advanced Simple@L5
Параметр BVOP формата : 2
Параметр QPel формата : Нет
Параметр GMC формата : Без точки перехода
Параметр матрицы формата : Default (MPEG)
Идентификатор кодека : XVID
Идентификатор кодека/Подсказка : XviD
Продолжительность : 38 м.
Битрейт : 1500 Кбит/сек
Ширина : 640 пикселей
Высота : 480 пикселей
Соотношение сторон : 4:3
Частота кадров : 25,000 кадров/сек
Цветовое пространство : YUV
Субдискретизация насыщенности : 4:2:0
Битовая глубина : 8 бит
Тип развёртки : Прогрессивная
Метод сжатия : С потерями
Бит/(Пиксели*Кадры) : 0.195
Размер потока : 417 Мбайт (92%)
Библиотека кодирования : XviD 64
Аудио
Идентификатор : 1
Формат : MPEG Audio
Версия формата : Version 1
Профиль формата : Layer 3
Режим : Joint stereo
Расширение режима : MS Stereo
Идентификатор кодека : 55
Идентификатор кодека/Подсказка : MP3
Продолжительность : 38 м.
Вид битрейта : Постоянный
Битрейт : 128 Кбит/сек
Каналы : 2 канала
Частота : 48,0 КГц
Метод сжатия : С потерями
Размер потока : 35,6 Мбайт (8%)
Выравнивание : Соединение по промежуткам
Продолжительность промежутка : 40 мс. (1,00 видеокадр)
Время предзагрузки промежутка : 504 мс.

Скриншоты

[teatrix.ru].t16813.torrent 
Торрент: Зарегистрирован [ 2016-03-17 00:08 ] · A9DB7E87F318D51DA3B162D1FF2A289BA145C2D6

Скачать .torrent

Скачать

18 KB

Статус: проверено
Скачан: 0 раз
Размер: 456 MB
terms.php



Показать сообщения:    

Текущее время: 05-Дек 11:26

Часовой пояс: UTC + 3


Вы не можете начинать темы
Вы не можете отвечать на сообщения
Вы не можете редактировать свои сообщения
Вы не можете удалять свои сообщения
Вы не можете голосовать в опросах
Вы не можете прикреплять файлы к сообщениям
Вы можете скачивать файлы