(Классика в современной обработке) Marek & Wacek (Marek & Vacek) - Zlote Przeboje - 2004, APE (image+.cue) lossless


 

[Цитировать]

Marek & Wacek (Marek & Vacek) / Złote Przeboje
Жанр: Классика в современной обработке
Страна-производитель диска: Poland
Год издания диска: 2004
Издатель (лейбл): GM Records
Номер по каталогу: GM 222 003-2
Страна: Poland
Аудиокодек: APE
Тип рипа: image+.cue
Битрейт аудио: lossless
Продолжительность: 00:58:53
Источник: WEB
Наличие сканов в содержимом раздачи: да
Треклист:
01. Prząśniczka (S. Moniuszko)
02. Oczy czarne (utwor trad.)
03. San Francisco (J. Philips)
04. Massachussetts (B., M., R. Gibb)
05. Ostatni walc (L. Reed)
06. Gdy wrócisz (J. Tomaszewski)
07. Komm, Lieber mai (W. A. Mozart)
08. Chciałabym, a boję się (M. Ager)
09. Łabędź (C. Saint-Saens)
10. Allegretto (L. van Beethoven)
11. Karzełki (J. Newman)
12. Preludium As-dur (F. Chopin)
13. Symfonia nr 4 "włoska" (F. Mendelssohn-Bertholdy)
14. Słowik (A. Alabiew)
15. Koncert a-moll (E. Grieg)
16. Cyrulik sewilski (G. Rossini)
17. Wesoły wieśniak (R. Schumann)
18. Labirynt (W. Kisielewski, M. Tomaszewski)
19. Ragtime klonowego liścia (S. Joplin)
20. Świat z Tobą (B. Kaempfert)

Лог создания рипа

Exact Audio Copy V0.99 prebeta 5 from 4. May 2009
Sprawozdanie ze zgrywania programem EAC z 10. Stycznia 2010, 17:47
Marek & Wacek / Zlote przeboje
Użyty napęd: HL-DT-STDVD-RAM GSA-H55N Adapter: 1 ID: 1
Tryb odczytu: : Bezpieczny
Dokładny strumień : Tak
Neutralizacja bufora napędu : Tak
Zwracanie błędów C2 : Nie
Korekta położenia dla odczytu : 102
Nadczytywanie w obszarach LeadIn i LeadOut : Nie
Dopełnianie ciszą brakujących próbek : Tak
Usuwanie początkowych i końcowych bloków ciszy : Nie
Do przeliczenia sumy kontrolnej CRC używane są próbki zerowe : Nie
Interfejs : Zainstalowane zewnętrzne sterowniki ASPI
Użyty format wyjściowy : Monkey's Audio Lossless Encoder v3.99 DLL
Format próbki : Normal Lossless Compression
TOC zgranej płyty
Utwór | Początek | Długość | Sektor początkowy | Sektor końcowy
------------------------------------------------------------------
1 | 0:00.00 | 2:42.10 | 0 | 12159
2 | 2:42.10 | 3:05.48 | 12160 | 26082
3 | 5:47.58 | 2:56.05 | 26083 | 39287
4 | 8:43.63 | 2:18.19 | 39288 | 49656
5 | 11:02.07 | 3:08.06 | 49657 | 63762
6 | 14:10.13 | 3:23.02 | 63763 | 78989
7 | 17:33.15 | 3:17.26 | 78990 | 93790
8 | 20:50.41 | 2:20.69 | 93791 | 104359
9 | 23:11.35 | 3:42.33 | 104360 | 121042
10 | 26:53.68 | 3:03.06 | 121043 | 134773
11 | 29:56.74 | 2:39.11 | 134774 | 146709
12 | 32:36.10 | 3:54.38 | 146710 | 164297
13 | 36:30.48 | 2:51.56 | 164298 | 177178
14 | 39:22.29 | 3:42.43 | 177179 | 193871
15 | 43:04.72 | 3:06.70 | 193872 | 207891
16 | 46:11.67 | 2:24.55 | 207892 | 218746
17 | 48:36.47 | 2:16.09 | 218747 | 228955
18 | 50:52.56 | 2:20.12 | 228956 | 239467
19 | 53:12.68 | 2:41.60 | 239468 | 251602
20 | 55:54.53 | 2:58.42 | 251603 | 264994
Stan i błędy zakresu
Wybrany zakres
Ścieżka pliku D:\Documents and Settings\Agnieszka\Pulpit\Marek & Wacek - Zlote przeboje.ape
Poziom wysterowania 96.6 %
Jakość zakresu 99.9 %
CRC kopii F0DD2134
Kopia bezbłędna
Nie było błędów
Koniec raportu

Об альбоме (сборнике)

Марек Томашевски и Вацлав Киселевски исполняют аранжированные классические произведения, современные композиции, а также собственные сочинения.



Показать сообщения:    

Текущее время: 04-Дек 02:55

Часовой пояс: UTC + 3


Вы не можете начинать темы
Вы не можете отвечать на сообщения
Вы не можете редактировать свои сообщения
Вы не можете удалять свои сообщения
Вы не можете голосовать в опросах
Вы не можете прикреплять файлы к сообщениям
Вы не можете скачивать файлы