(Classical Crossover, Instrumental) Luis Cobos - Дискография (16CD) (1982-2008), FLAC (image+.cue), lossless


 

[Цитировать]

-●★●Luis Cobos Discography ●★●- -Жанр: Classical Crossover | Производитель диска: Austria + USA + EU | Лейбл: CBS/Epic/Universal
Год издания: 1982-2008 | Аудио кодек: FLAC | Тип рипа: image+.cue | Битрейт аудио: lossless
Источник (релизер): Рипы оригинальных дисков из личной коллекции | Наличие сканов: 600dpi, PNG-Luis Cobos - испанский дирижер, аранжировщик, композитор. Получив классическое музыкальное образование, Кобос решил стать "сессионным дирижером". С 1982 года гастролирует по всему миру, выступая и записывая оркестровые аранжировки для многих известных исполнителей, работает с такими оркестрами как Королевский Филармонический в Лондоне, Московский и Брюссельский симфонические оркестры. Кобос выпустил несколько сольных альбомов которые разошлись тиражом более 10 млн. дисков по всему миру. Альбомы - от классики в оригинальной обработке, до сборника вариаций на тему традиционных испанских пасадоблей.-●★● АЛЬБОМЫ ●★●-

1982. ZARZUELA ●★● CDCBS 85883 ●★● Austria Год выпуска диска : 1982
Производитель диска : Austria
Аудио кодек : FLAC
Тип рипа : image+.cue (Test & Copy)
Битрейт аудио : lossless
Продолжительность : 45:32
Лейбл : CBS
Каталожный номер : CDCBS 85883
Источник (релизер): Рип оригинального диска из личной коллекции
Сканы: прилагаются


01. Zarzuela Medley 1
02. Zarzuela Medley 2
03. Zarzuela Medley 3
04. Zarzuela Medley 4
05. Zarzuela Medley 5

-

Подробнее о треках01. Zarzuela Medley 1
La torre del oro: "Preludio" (G. Giménez)El tambor de granaderos: "Preludio" (R. Chapí)El año pasado por agua: "Preludio" (F. Chueca)Enseñanza libre: "Preludio" (G. Giménez)La Corte del Faraón: "Garrotín" (V. Lleó)Agua, azucarillos y aguardiente: "Preludio" (F. Chueca)La calesera: "Chisperos" (F. Alonso)El huésped del sevillano: "Fiel espada" (J. Guerrero)La gran via: "Intermedio" (F. Moreno Torroba)
02. Zarzuela Medley 2
Luisa Fernanda: "Las sombrillas" (F. Moreno Torroba)Doña Francisquita: "Ronda de enamorados" (A. Vives)Agua, azucarillos y aguardiente: "Preludio" (F. Chueca)Bohemios: "El baile del Laurel" (A. Vives)
03. Zarzuela Medley 3
La Revoltosa: "Preludio" (R. Chapí)La rosa del azafrán: "El sembrador" (J. Guerrero)Alma de Dios: "La canción del vagabundo" (J. Serrano)La leyenda del beso: "Intermedio" (R. Soutullo & J. Vert)Bohemios: "Intermedio" (A. Vives)Jardines de Granada (F. Moreno Torroba)
04. Zarzuela Medley 4
Las leandras: "Los nardos" (F. Alonso)El pobre Valbuena: "Pasacalle" (López Torregrosa)El rey que rabió: "Coro de doctores" (R. Chapí)La alegría de la huerta: "Pasacalle" (F. Chueca)El bateo: "Preludio" (F. Chueca)Los gavilanes: "Amigos" (J. Guerrero)La parranda: "Canto a Murcia" (F. Alonso)La boda de Luis Alonso: "Intermedio" (G. Giménez)
05. Zarzuela Medley 5
El barberillo de Lavapiés: "Preludio" (F. Barbieri)La gran via (F. Moreno Torroba)La rosa del azafrán: "Espigadoras" (J. Guerrero)El baile de Luis Alonso: "Intermedio" (G. Giménez)La Torre del oro: "Preludio" (G. Giménez)El huésped del Sevillano: "Lagarterana" (G. Giménez)El trust de los tenorios: "El vals" (J. Serrano)La boda de Luis Alonso: "Intermedio" (G. Giménez)

Лог создания рипа

Exact Audio Copy V1.0 beta 3 from 29. August 2011
EAC extraction logfile from 16. July 2013, 18:48
Luis Cobos / Zarzuela (CDCBS 85883)
Used drive : TSSTcorpCDDVDW TS-L633C Adapter: 2 ID: 0
Read mode : Secure
Utilize accurate stream : Yes
Defeat audio cache : Yes
Make use of C2 pointers : No
Read offset correction : 6
Overread into Lead-In and Lead-Out : No
Fill up missing offset samples with silence : Yes
Delete leading and trailing silent blocks : No
Null samples used in CRC calculations : Yes
Used interface : Native Win32 interface for Win NT & 2000
Used output format : Internal WAV Routines
Sample format : 44.100 Hz; 16 Bit; Stereo
TOC of the extracted CD
Track | Start | Length | Start sector | End sector
---------------------------------------------------------
1 | 0:00.00 | 9:27.30 | 0 | 42554
2 | 9:27.30 | 4:27.70 | 42555 | 62649
3 | 13:55.25 | 10:19.60 | 62650 | 109134
4 | 24:15.10 | 8:30.12 | 109135 | 147396
5 | 32:45.22 | 12:49.18 | 147397 | 205089
Range status and errors
Selected range
Filename D:\Luis Cobos - Zarzuela (CDCBS 85883).wav
Peak level 84.8 %
Extraction speed 3.3 X
Range quality 100.0 %
Test CRC B32BB70F
Copy CRC B32BB70F
Copy OK
No errors occurred
AccurateRip summary
Track 1 accurately ripped (confidence 2) [1FDEB995] (AR v2)
Track 2 accurately ripped (confidence 2) [C0F1EE54] (AR v2)
Track 3 accurately ripped (confidence 2) [2B3A231F] (AR v2)
Track 4 accurately ripped (confidence 2) [8602B543] (AR v2)
Track 5 accurately ripped (confidence 2) [403C6F69] (AR v2)
All tracks accurately ripped
End of status report
---- CUETools DB Plugin V2.1.4
[CTDB TOCID: .1ZFPS7pcX6EMMaus.TF142znDY-] found
Submit result: .1ZFPS7pcX6EMMaus.TF142znDY- has been confirmed
Track | CTDB Status
1 | (2/2) Accurately ripped
2 | (2/2) Accurately ripped
3 | (2/2) Accurately ripped
4 | (2/2) Accurately ripped
5 | (2/2) Accurately ripped
==== Log checksum 250376165F08BA2C82FC0F2B38F9DF70C163CABE6EAB1CD4A5613EC0D3C8B131 ====
1983. SOL Y SOMBRA ●★● CDCBS 25559 ●★● Austria Год выпуска диска : 1983
Производитель диска : Austria
Аудио кодек : FLAC
Тип рипа : image+.cue (Test & Copy)
Битрейт аудио : lossless
Продолжительность : 44:20
Лейбл : CBS
Каталожный номер : CDCBS 25559
Источник (релизер): Рип оригинального диска из личной коллекции
Сканы: прилагаются


01. Pasodobles
02. Españolerias
03. Marchas y Pasacalles de Zarzuela
04. Pasodobles populares
05. Habaneras y Canciones
06. Pasodobles
-

Подробнее о треках01. Pasodobles
Sol y sombra: "Obertura" (L. Cobos)España cañí (P. Marquina)La giralda (L. Juarranz)Suspiros de España (A. Alvarez)Amparito Roca (J. Textdor)
02. Españolerias
Malagueña (E. Lecuona)De España vengo (de "El niño judio") (P. Luna/E. Garcia Alvarez/A. Paso)Dama de España (T. Evans)Andalucia (E. Lecuona)Granada (A. Lara)El relicario (J. Padilla)La verbena de la Paloma (T. Bretón/R. de la Vega)
03. Marchas y Pasacalles de Zarzuela
Moros y cristianos: "Preludio" (J. Serrano/M. Thous/E. Cerda)La gatita blanca: "Machicha" (G. Gimenez/A. Vives)Soldado de Napoles (de "La canción del Olvido") (J. Serrano/F. Bometo/G. Fernandez Shaw)Los Voluntarios (G. Gimenez/F. Yrayzoz)La banderita (de "Las corsarias") (F. Alonso/E. Paradas/J. Jimenez)Soldatito español (J. Guerrero/P. Muñoz Seca/P. Perez Fernandez)La estudiantina (de "El canastillo de fresas") (J. Guerrero/G у R. Fernandez Shaw)Cadiz: "Marcha" (F. Chueca/J. Valverde)
04. Pasodobles populares
El gato montés (M. Peneila)Marcial, eres el más grande (M. Domingo)El vito (S. Lopez)En el mundo (J. Fernandez)Valencia (J. Padlila/A. de La Prada)Islas Canarias (J. M. Tarridas)
05. Habaneras y Canciones
La verbena de la Paloma: "Preludio" (T. Bretón/R. de la Vega)Habanera del Pompón (de "El Pobre Valbuena") (J. Valverde/ L. Torregrosa/C. Amiches/E. Garcia Alvarez)La violetera (J. Padilla)Carmen: "Habanera" (Bizet - Arreglo: Luis Cobos)Monte Carmelo: "Habanera" (F. M. Torroba/G. Fernandez Shaw)Don Gil de Alcalá: "Habanera" (M. Peneila)El soldatito (de "Luisa Fernanda") (F M. Torroba/F. Romero/G. Fernandez Shaw)Ay va (de "La Corte de Faraón") (V. Lleó/G. Perrin/M. Palacios)
06. Pasodobles
Gallito (S. Lopez)La gracia de Dios (R. Roig)Pepita Creus (P. Perez Chovi)Puenteareas (R. Soulullo)

Лог создания рипа

Exact Audio Copy V1.0 beta 3 from 29. August 2011
EAC extraction logfile from 13. July 2013, 16:38
Luis Cobos / Sol y sombra (CDCBS 25559)
Used drive : TSSTcorpCDDVDW TS-L633C Adapter: 2 ID: 0
Read mode : Secure
Utilize accurate stream : Yes
Defeat audio cache : Yes
Make use of C2 pointers : No
Read offset correction : 6
Overread into Lead-In and Lead-Out : No
Fill up missing offset samples with silence : Yes
Delete leading and trailing silent blocks : No
Null samples used in CRC calculations : Yes
Used interface : Native Win32 interface for Win NT & 2000
Used output format : Internal WAV Routines
Sample format : 44.100 Hz; 16 Bit; Stereo
TOC of the extracted CD
Track | Start | Length | Start sector | End sector
---------------------------------------------------------
1 | 0:00.00 | 5:36.20 | 0 | 25219
2 | 5:36.20 | 7:42.42 | 25220 | 59911
3 | 13:18.62 | 8:06.23 | 59912 | 96384
4 | 21:25.10 | 7:57.65 | 96385 | 132224
5 | 29:23.00 | 8:55.05 | 132225 | 172354
6 | 38:18.05 | 6:02.67 | 172355 | 199571
Range status and errors
Selected range
Filename D:\Luis Cobos - Sol y sombra (CDCBS 25559).wav
Peak level 82.2 %
Extraction speed 3.3 X
Range quality 99.9 %
Test CRC AAE82DC4
Copy CRC AAE82DC4
Copy OK
No errors occurred
AccurateRip summary
Track 1 not present in database
Track 2 not present in database
Track 3 not present in database
Track 4 not present in database
Track 5 not present in database
Track 6 not present in database
None of the tracks are present in the AccurateRip database
End of status report
---- CUETools DB Plugin V2.1.4
[CTDB TOCID: CyiWv2OM2NSsc2kVJrMvZMrj8hY-] disk not present in database
Submit result: CyiWv2OM2NSsc2kVJrMvZMrj8hY- has been uploaded
==== Log checksum EA6AA4F6EBFB68001C1FC5C1905303812D1FDEF9351C6FBEA468687D88C581E1 ====
1984. MEXICANO ●★● CDCBS 26053 ●★● Austria Год выпуска диска : 1984
Производитель диска : Austria
Аудио кодек : FLAC
Тип рипа : image+.cue (Test & Copy)
Битрейт аудио : lossless
Продолжительность : 43:10
Лейбл : CBS
Каталожный номер : CDCBS 26053
Источник (релизер): Рип оригинального диска из личной коллекции
Сканы: прилагаются


01. Mexicano Medley 1
02. Mexicano Medley 2
03. Serenata Mexicana
04. Mexicano Medley 3
05. Mexicano Medley 4
06. Intermezzo
07. Mexicano Medley 5
08. Mexicano Medley 6
-

Подробнее о треках01. Mexicano Medley 1
Obertura (L. Cobos)México (F. López/J. M. Arozamena/L. Mariano)A Jorge Negrete (Chucho Monge)Agua del pozo (Chucho Palacios)Jesusita en Chihuahua (Quirino Mendoza Cortés)¡Ay Jalisco no te rajes! (E. Cortazar/M. Esperon)Adiós Meriquita linda (Marcos A. Jiménez)Carta a Eufemia (R. Fuentes/R. Mendez)La Adelita (Arreglo: L. Cobos)
02. Mexicano Medley 2
Mexico lindo y querido (Chucho Monge)Tu solo tu (F. Valdes Leal)María Bonita (Agustin Lara)Ella... la que se fue (J. A. Jiménez)Corazón corazón (J. A. Jiménez)La cama de piedra (Cuco Sánchez)Cielito lindo (Quirino Mendoza Cortés)La malagueña (Elpidio Ramirez/Petro Galindo)
03. Serenata Mexicana
(Manuel M. Ponce)
04. Mexicano Medley 3
Huapango (1ra. Parte) (José Pablo Moncayo)Estrellita (L y M. de M. Ponce)Huapango (2da Parte) (José Pablo Moncayo)
05. Mexicano Medley 4
Guadalajara (Pepe Guizar)Allá en el rancho grande (Arreglo: Luis Cobos)Las bicicletas (Arreglo: Luis Cobos)Jarabe Tapatio (Arreglo: Luis Cobos)
06. Intermezzo
(Manuel M. Ponce)
07. Mexicano Medley 5
La bamba (Arreglo: Luis Cobos)Los machetes (Arreglo: Luis Cobos)El rascapetate (Luis Cobos)Las alteñitas (J. J. Espinoza)La negra (Arreglo: Luis Cobos)La zandunga (Arreglo: Luis Cobos)La llorona (Arreglo: Luis Cobos)Las chiapanecas (Rafael de Paz)La cucaracha (Arreglo: Luis Cobos)La raspa (Arreglo: Luis Cobos)
08. Mexicano Medley 6
Las mañanitas (Alfonso Esparza Oteo)Solamente una vez (Agustin lara)Vereda tropical (Gonzalo Curiel)Sombras nada mas (J. M. Gonzalez/ F. Lomulo/J. M. Suarez)El reloj (R. Cantoral)Cuando vuelva a tu lado (Maria Grever)Noche de ronda (Austin Lara)Bésame mucho (Consuelo Velazquez)Las golondrinas (Arreglo: Luis Cobos)

Лог создания рипа

Exact Audio Copy V1.0 beta 3 from 29. August 2011
EAC extraction logfile from 29. July 2013, 9:56
Luis Cobos / Mexicano (CDCBS 26053)
Used drive : TSSTcorpCDDVDW TS-L633C Adapter: 2 ID: 0
Read mode : Secure
Utilize accurate stream : Yes
Defeat audio cache : Yes
Make use of C2 pointers : No
Read offset correction : 6
Overread into Lead-In and Lead-Out : No
Fill up missing offset samples with silence : Yes
Delete leading and trailing silent blocks : No
Null samples used in CRC calculations : Yes
Used interface : Native Win32 interface for Win NT & 2000
Used output format : Internal WAV Routines
Sample format : 44.100 Hz; 16 Bit; Stereo
TOC of the extracted CD
Track | Start | Length | Start sector | End sector
---------------------------------------------------------
1 | 0:00.00 | 6:29.07 | 0 | 29181
2 | 6:29.07 | 6:28.10 | 29182 | 58291
3 | 12:57.17 | 1:52.60 | 58292 | 66751
4 | 14:50.02 | 6:03.03 | 66752 | 93979
5 | 20:53.05 | 2:30.65 | 93980 | 105294
6 | 23:23.70 | 2:35.12 | 105295 | 116931
7 | 25:59.07 | 7:02.73 | 116932 | 148654
8 | 33:02.05 | 10:07.50 | 148655 | 194229
Range status and errors
Selected range
Filename D:\Luis Cobos - Mexicano (CDCBS 26053).wav
Peak level 79.5 %
Extraction speed 3.4 X
Range quality 100.0 %
Test CRC 415C5FE8
Copy CRC 415C5FE8
Copy OK
No errors occurred
AccurateRip summary
Track 1 cannot be verified as accurate (confidence 1) [F213F4C7], AccurateRip returned [198E7E67] (AR v2)
Track 2 cannot be verified as accurate (confidence 1) [AAC302CD], AccurateRip returned [7BACC9F9] (AR v2)
Track 3 cannot be verified as accurate (confidence 1) [436423B7], AccurateRip returned [47D04AEC] (AR v2)
Track 4 cannot be verified as accurate (confidence 1) [3D1BA093], AccurateRip returned [2D25FB20] (AR v2)
Track 5 cannot be verified as accurate (confidence 1) [4A061A85], AccurateRip returned [03B41EC1] (AR v2)
Track 6 cannot be verified as accurate (confidence 1) [C6C1C410], AccurateRip returned [0FE75617] (AR v2)
Track 7 cannot be verified as accurate (confidence 1) [8500F9A7], AccurateRip returned [D57282EA] (AR v2)
Track 8 cannot be verified as accurate (confidence 1) [734F4F8E], AccurateRip returned [287529CA] (AR v2)
No tracks could be verified as accurate
You may have a different pressing from the one(s) in the database
End of status report
---- CUETools DB Plugin V2.1.4
[CTDB TOCID: ADG9gdJUgRL0khg8Y.Rul2GjuXI-] found
Submit result: ADG9gdJUgRL0khg8Y.Rul2GjuXI- has been confirmed
Track | CTDB Status
1 | (2/2) Accurately ripped
2 | (2/2) Accurately ripped
3 | (2/2) Accurately ripped
4 | (2/2) Accurately ripped
5 | (2/2) Accurately ripped
6 | (2/2) Accurately ripped
7 | (2/2) Accurately ripped
8 | (2/2) Accurately ripped
==== Log checksum 973CD17290EFF5E2F3B88A018AE18D6ABB40628EDC48BBFA05328FA4D3598D89 ====
1985. MAS ZARZUELA ●★● CBS 462574 2 ●★● Austria Год выпуска диска : 1985
Производитель диска : Austria
Аудио кодек : FLAC
Тип рипа : image+.cue (Test & Copy)
Битрейт аудио : lossless
Продолжительность : 45:36
Лейбл : CBS
Каталожный номер : CBS 462574 2
Источник (релизер): Рип оригинального диска из личной коллекции
Сканы: прилагаются


01. Mas Zarzuela Medley 1
02. Benamor
03. Lentos
04. Valses
05. Doña Francisquita
06. Mas Zarzuela Medley 2
07. La picara molinera
08. Jotas
-

Подробнее о треках01. Mas Zarzuela Medley 1
La tempranica: "Zapateado" (J. Romea/G. Giménez)La del manojo de rosas: "Preludio Acto II" (F. Ramos/A. Carreno/P. Sorozábal)El amigo Melquíades: "Allegro" (C. Amiches/J. Serrano/J. Valverde)Katiuska: "La mujer rusa" (E. Glez. del Castillo/M. Marti/P. Sorozábal)Agua, azucarillos y aguardiente: "Pasodoble" (M. Ramos/F. Chueca)El barberillo de Lavapiés: "Pasacalle" (L. M. Larra/F. Asenjo)Katiuska: "Cosacos de Kazán" (E. Glez. del Castillo/M. Marti/P. Sorozábal)La marchenera: "Preludio" (R. Glez. del Toro/F. Luque/F. Moreno-Torroba)
02. Benamor
"Danza del fuego" (A. Paso/R. Glez. del Toro/P. Luna)
03. Lentos
La taberna del puerto: "Romanza" (P. Sorozábal/G. Fdez. Shaw/F. Romero)La dolorosa: "La roca fria" (J. Serrano/J. Jose Lorente)Los gavilanes: "Mi aldea" (J. Ramos/J. Guerrero)El anillo de hierro: "Preludio" (M Zapata/M. Marques)La dolorosa: "El amor..." (J. Serrano/J. Jose Lorente)La dolorosa: "Ten Piedad" (J. Serrano/J. Jose Lorente)Katiuska: "Final" (E. Glez. del Castillo/M. Marti/P. Sorozábal)
04. Valses
El chaleco blanco: "Preludio" (M. Ramos/F. Chueca)Molinos de viento: "Duo" (L. Pascual/P. Luna)El bateo: "Preludio" (A Dominguez/A Paso/F. Chueca)La verbena de la Paloma: "Mazurca" (T. Bretón/R. de la Vega)La Corte de Faraón: "Vals" (V. Lleó/G. Perrin/M. Palacios)Katiuska: "Rusa, rusita" (E. Glez. del Castillo/M. Marli/P. Sorozábal)
05. Doña Francisquita
"Fandango" (F. Pomero/F. Fdez. Snaw/A. Vives)
06. Mas Zarzuela Medley 2
Bohemios: "Coro de la libertad" (G. Perrin/M. Palacios/A. Vives)Molinos de viento (I. Pascual Frutos/P. Luna)El canastillo de fresas (G. Fdez. Shaw/R. Fdez. Shaw/J. Guerrero)El puñao de rosas: "Pasaca-110" (R. Chapi/C. Arniches/A. Mas)La canción del Olvido: "Romanza" (G. Fdez. Sbaw/F. Romero/J. Serrano)La rosa del azafrán: "Pasacalle" (G. Fdez. Shaw/F. Romero/J. Guerrero)Doña Francisquita (F. Romero/F. Fdez. Shaw/A. Vives)Pan y toros: "Preludio" (J. Picón/F. Barbieri)
07. La picara molinera
"Intermedio" (A. Torres/A. Asenjo/P. Luna)
08. Jotas
La boda de Luis Alonso: "Preludio" (J. Burgos/G. Gimenez)El baile de Luis Alonso: "Preludio" (J. Burgos/G. Gimenez)El trust de los tenorios: "Jota" (C. Arniches/E. Garcia Alvarez/J. Serrano)Viva Navarra: "Jota" (J. Larregla)La gran via: "Jota de los rata" (F. Chueca/J. Vaiverde/F. Perez)La Dolores: "Jota" (J. Feliu/T. Breton)

Лог создания рипа

Exact Audio Copy V1.0 beta 3 from 29. August 2011
EAC extraction logfile from 16. July 2013, 19:21
Luis Cobos / Mas Zarzuela (CBS 462574 2)
Used drive : TSSTcorpCDDVDW TS-L633C Adapter: 2 ID: 0
Read mode : Secure
Utilize accurate stream : Yes
Defeat audio cache : Yes
Make use of C2 pointers : No
Read offset correction : 6
Overread into Lead-In and Lead-Out : No
Fill up missing offset samples with silence : Yes
Delete leading and trailing silent blocks : No
Null samples used in CRC calculations : Yes
Used interface : Native Win32 interface for Win NT & 2000
Used output format : Internal WAV Routines
Sample format : 44.100 Hz; 16 Bit; Stereo
TOC of the extracted CD
Track | Start | Length | Start sector | End sector
---------------------------------------------------------
1 | 0:00.00 | 6:39.12 | 0 | 29936
2 | 6:39.12 | 3:48.65 | 29937 | 47101
3 | 10:28.02 | 8:20.65 | 47102 | 84666
4 | 18:48.67 | 5:31.58 | 84667 | 109549
5 | 24:20.50 | 2:12.05 | 109550 | 119454
6 | 26:32.55 | 7:34.45 | 119455 | 153549
7 | 34:07.25 | 4:06.40 | 153550 | 172039
8 | 38:13.65 | 7:26.32 | 172040 | 205521
Range status and errors
Selected range
Filename D:\Luis Cobos - Mas Zarzuela (CBS 462574 2).wav
Peak level 75.6 %
Extraction speed 3.3 X
Range quality 100.0 %
Test CRC 64D67D1C
Copy CRC 64D67D1C
Copy OK
No errors occurred
AccurateRip summary
Track 1 cannot be verified as accurate (confidence 1) [A80A34EA], AccurateRip returned [5448407E] (AR v2)
Track 2 cannot be verified as accurate (confidence 1) [295FADB2], AccurateRip returned [440FA230] (AR v2)
Track 3 cannot be verified as accurate (confidence 1) [C4E79825], AccurateRip returned [A800A473] (AR v2)
Track 4 cannot be verified as accurate (confidence 1) [B6332589], AccurateRip returned [86445030] (AR v2)
Track 5 cannot be verified as accurate (confidence 1) [0F61DC88], AccurateRip returned [EA7AD550] (AR v2)
Track 6 cannot be verified as accurate (confidence 1) [5090B66F], AccurateRip returned [8573C4AE] (AR v2)
Track 7 cannot be verified as accurate (confidence 1) [81158CAC], AccurateRip returned [315E4455] (AR v2)
Track 8 cannot be verified as accurate (confidence 1) [412D8AB7], AccurateRip returned [C9D01A85] (AR v2)
No tracks could be verified as accurate
You may have a different pressing from the one(s) in the database
End of status report
---- CUETools DB Plugin V2.1.4
[CTDB TOCID: FTfUsFZRTqlYv3BplvHTpf2vuVI-] found
Submit result: FTfUsFZRTqlYv3BplvHTpf2vuVI- has been confirmed
Track | CTDB Status
1 | (1/1) Accurately ripped
2 | (1/1) Accurately ripped
3 | (1/1) Accurately ripped
4 | (1/1) Accurately ripped
5 | (1/1) Accurately ripped
6 | (1/1) Accurately ripped
7 | (1/1) Accurately ripped
8 | (1/1) Accurately ripped
==== Log checksum 003139422C950E2EBE71CECD4BA71ECD60DCC5637562A92CFABDA81BA97DE702 ====
1986. CAPRICCIO RUSSO ●★● CBS 450338 2 ●★● Austria Год выпуска диска : 1986
Производитель диска : Austria
Аудио кодек : FLAC
Тип рипа : image+.cue (Test & Copy)
Битрейт аудио : lossless
Продолжительность : 57:34
Лейбл : CBS/Sony
Каталожный номер : COL 450338 2
Источник (релизер): Рип оригинального диска из личной коллекции
Сканы: прилагаются


01. Capriccio Russo
02. Danzas
03. Marcha eslava
04. Piccolo concerto
05. Bocetos ritmicos
06. Una noche de Septiembre
07. Valses
08. Capricho español
09. Romance

-

Подробнее о треках01. Capriccio Russo
Basado en temas tradicionales:"Patrulla cosaca""Los tiempos del lirio""Dos guitarras""Ojos negros""Kalinka""Medianoche en Moscú"
02. Danzas
"Danza del sable" (Khachaturian)"Danza trepak" (Tchaikovsky)"Los saltimbanquis" (Tchaikovsky)"Capricho italiano" (Tchaikovsky)
03. Marcha eslava
(Tchaikovsky)
04. Piccolo concerto
"Sherezade" (Korsakov)"Canción india" (Korsakov)"Concierto en re" (Tchaikovsky)"Danzas del príncipe Igor" (Borodin)"Romeo y Julieta" (Tchaikovsky)
05. Bocetos ritmicos
"Capricho italiano" (Tchaikovsky)"Capricho español" (Korsakov)"Bocetos del Cáucaso" (Ivanov)"Ruslán y Liudmila" (Glinka)
06. Una noche de Septiembre
"El lago de los cisnes" (Tchaikovsky)"Concierto nº 2" (Rachmaninoff)"Adagio de Spartacus" (Khatchaturian)"Sinfonía nº 5" (Tchaikovsky)"Sinfonía nº 6" (Tchaikovsky)"Obertura 1812" (Tchaikovsky)
07. Valses
"Danzas del Príncipe Igor" (Borodin)"Vals de las flores" (Tchaikovsky)"El lago de los cisnes" (Tchaikovsky)"La Bella Durmiente" (Tchaikovsky)"Serenata para cuerdas" (Tchaikovsky)
08. Capricho español
(Korsakov)
09. Romance
(Rubinstein)

Лог создания рипа

Exact Audio Copy V1.0 beta 3 from 29. August 2011
EAC extraction logfile from 15. December 2012, 13:12
Luis Cobos / Capriccio Russo (COL 450338 2)
Used drive : TSSTcorpCDDVDW TS-L633C Adapter: 2 ID: 0
Read mode : Secure
Utilize accurate stream : Yes
Defeat audio cache : Yes
Make use of C2 pointers : No
Read offset correction : 6
Overread into Lead-In and Lead-Out : No
Fill up missing offset samples with silence : Yes
Delete leading and trailing silent blocks : No
Null samples used in CRC calculations : Yes
Used interface : Native Win32 interface for Win NT & 2000
Used output format : Internal WAV Routines
Sample format : 44.100 Hz; 16 Bit; Stereo
TOC of the extracted CD
Track | Start | Length | Start sector | End sector
---------------------------------------------------------
1 | 0:00.00 | 5:05.07 | 0 | 22881
2 | 5:05.07 | 6:17.33 | 22882 | 51189
3 | 11:22.40 | 6:26.70 | 51190 | 80209
4 | 17:49.35 | 7:12.60 | 80210 | 112669
5 | 25:02.20 | 5:13.10 | 112670 | 136154
6 | 30:15.30 | 11:37.10 | 136155 | 188439
7 | 41:52.40 | 8:49.02 | 188440 | 228116
8 | 50:41.42 | 3:29.18 | 228117 | 243809
9 | 54:10.60 | 3:23.10 | 243810 | 259044
Range status and errors
Selected range
Filename C:\Users\user\Desktop\Luis Cobos - Capriccio Russo (COL 450338 2).wav
Peak level 97.4 %
Extraction speed 3.8 X
Range quality 100.0 %
Test CRC 51E9008B
Copy CRC 51E9008B
Copy OK
No errors occurred
AccurateRip summary
Track 1 accurately ripped (confidence 3) [3D252D59] (AR v1)
Track 2 accurately ripped (confidence 3) [44A963D4] (AR v1)
Track 3 accurately ripped (confidence 3) [5044F0E2] (AR v1)
Track 4 accurately ripped (confidence 3) [CE232654] (AR v1)
Track 5 accurately ripped (confidence 3) [364B580C] (AR v1)
Track 6 accurately ripped (confidence 3) [5F928AF8] (AR v1)
Track 7 accurately ripped (confidence 3) [00BC49C5] (AR v1)
Track 8 accurately ripped (confidence 3) [1611D76D] (AR v1)
Track 9 accurately ripped (confidence 3) [A933F090] (AR v1)
All tracks accurately ripped
End of status report
1987. TEMPO D'ITALIA ●★● CBS 460518 2 ●★● Austria Год выпуска диска : 1987
Производитель диска : Austria
Аудио кодек : FLAC
Тип рипа : image+.cue (Test & Copy)
Битрейт аудио : lossless
Продолжительность : 51:21
Лейбл : Discos CBS S.A.
Каталожный номер : CBS 460518 2
Источник (релизер): Рип оригинального диска из личной коллекции
Сканы: прилагаются


01. Tempo d'Italia
02. Adagio en Venezzia
03. Scalando
04. Intermezzo
05. Tutta forza
06. Lentamente
07. Come prima

-

Подробнее о треках01. Tempo d'Italia
"Aida" (Verdi)"Funiculì funiculà" (Denza)"Il barbiere di Siviglia" (Rossini)"Serenata Napoletana" (Capua)"Rigoletto" (Verdi)"Tarantella Napoletana" (Rossini)
02. Adagio en Venezzia
"Tosca" (Puccini)"Madama Butterfly" (Puccini)"Gianni Schicchi" (Rossini)"L'elisir d'amore" (Donizetti)"Adagio" (Albinoni)"La bohème" (Puccini)
03. Scalando
"Il barbiere di Siviglia" (Rossini)"La Gioconda" (Ponchielli)"Nabucco" (Verdi)
04. Intermezzo
"Cavalleria rusticana" (Mascagni)
05. Tutta forza
"La Gioconda" (Ponchielli)"Semiramide" (Rossini)"Don Pasquale" (Donizetti)"Il trovatore" (Verdi)"Guillaume Tell" (Rossini)
06. Lentamente
"Madama Butterfly" (Puccini)"La traviata" (Verdi)"La bohème" (Puccini)"I pagliacci" (Leoncavallo)"Il barbiere di Siviglia" (Rossini)"Nabucco" (Verdi)"La Gioconda" (Ponchielli)
07. Come prima
"La traviata" (Verdi)"Don Pasquale" (Donizetti)"Maria Mari" (Capua)"Rigoletto" (Verdi)"La gazza ladra" (Rossini)

Лог создания рипа

Exact Audio Copy V1.0 beta 3 from 29. August 2011
EAC extraction logfile from 28. September 2012, 14:16
Luis Cobos / Tempo d'Italia (CBS 460518 2)
Used drive : TSSTcorpCDDVDW TS-L633C Adapter: 2 ID: 0
Read mode : Secure
Utilize accurate stream : Yes
Defeat audio cache : Yes
Make use of C2 pointers : No
Read offset correction : 6
Overread into Lead-In and Lead-Out : No
Fill up missing offset samples with silence : Yes
Delete leading and trailing silent blocks : No
Null samples used in CRC calculations : Yes
Used interface : Native Win32 interface for Win NT & 2000
Used output format : Internal WAV Routines
Sample format : 44.100 Hz; 16 Bit; Stereo
TOC of the extracted CD
Track | Start | Length | Start sector | End sector
---------------------------------------------------------
1 | 0:00.00 | 5:15.25 | 0 | 23649
2 | 5:15.25 | 11:57.60 | 23650 | 77484
3 | 17:13.10 | 4:08.10 | 77485 | 96094
4 | 21:21.20 | 3:19.52 | 96095 | 111071
5 | 24:40.72 | 7:22.50 | 111072 | 144271
6 | 32:03.47 | 10:44.40 | 144272 | 192611
7 | 42:48.12 | 8:32.38 | 192612 | 231049
Range status and errors
Selected range
Filename C:\Users\user\Desktop\Luis Cobos - Tempo d'Italia (CBS 460518 2).wav
Peak level 100.0 %
Extraction speed 3.5 X
Range quality 99.9 %
Test CRC F1BAF75E
Copy CRC F1BAF75E
Copy OK
No errors occurred
AccurateRip summary
Track 1 accurately ripped (confidence 2) [AF8CBD29] (AR v1)
Track 2 not present in database
Track 3 accurately ripped (confidence 2) [5E82E72C] (AR v1)
Track 4 accurately ripped (confidence 2) [7CDDC956] (AR v1)
Track 5 accurately ripped (confidence 2) [47F06B2B] (AR v1)
Track 6 not present in database
Track 7 not present in database
4 track(s) accurately ripped
3 track(s) not present in the AccurateRip database
Some tracks could not be verified as accurate
End of status report
1988. VIENNA CONCERTO ●★● CBS 463136 2 ●★● Austria Год выпуска диска : 1988
Производитель диска : Austria
Аудио кодек : FLAC
Тип рипа : image+.cue (Test & Copy)
Битрейт аудио : lossless
Продолжительность : 64:54
Лейбл : Discos CBS S.A.
Каталожный номер : CBS 463136 2
Источник (релизер): Рип оригинального диска из личной коллекции
Сканы: прилагаются


01. Vienna Concerto
02. Sempre Vals
03. Cita en Vienna
04. Romantic Schönbrunn
05. Perpetum Polka
06. Sublime Adagio
07. Johann & Amadeus
08. Voces del Danubio
09. Lluvia de otoño
-

Подробнее о треках01. Vienna Concerto
"Cavallería ligera" (Suppé)"Radetzky March" (J.Strauss)"Danza Húngara nº 5" (Brahms)"Pequeña serenata nocturna" (Mozart)"Do, Re, Mi" (Rodgers)"Marcha turka" (Mozart)"Cavallería ligera" (Suppé)
02. Sempre Vals
"El murciélago" (J. Strauss)"Sangre vienesa" (J. Strauss)"El Barón Gitano" (J. Strauss)"El Vals del Emperador" (J. Strauss)
03. Cita en Vienna
"Las Bodas de Figáro" (Mozart)"Marcha Militar" (Schubert)"Concierto para trompeta y orquesta en Mib" (Haydn)"Rosamunda" (Schubert)
04. Romantic Schönbrunn
"Cuentos de los bosques de Vienna" (J. Strauss)"Sinfonía nº 3" (Brahms)"Pequeña serenata nocturna" (Mozart)"Concierto para piano y orquesta nº 21" (Mozart)
05. Perpetum Polka
"Un ballo in Maschera" (Verdi)"A la caza" (J. Strauss)"Trish-Trash" (J. Strauss)"Truenos y relámpagos" (J. Strauss)"Ohne Sorgen" (J. Strauss)"Rapsodia húngara nº 2" (Liszt)
06. Sublime Adagio
"Adagio de la 9ª Sinfonia" (Beethoven)
07. Johann & Amadeus
"Annen Polka" (J. Strauss)"El Murciélago" (J. Strauss)"Eine Kleine Nachtmusik" (Mozart)"Sinfonia nº 40" (Mozart)
08. Voces del Danubio
"El Danubio Azul" (J. Strauss)"Rosas del Sur" (J. Strauss)"Voces de Primavera" (J. Strauss)"Cuentos de los Bosques de Vienna" (J. Strauss)
09. Lluvia de otoño
"Poeta y aldeano" (Suppé)"Sinfonia nº 4 (2º movimiento)" (Mendelsohn)"Concierto para clarinete y orquesta en Re" (Mozart)"El Murciélago" (J. Strauss)"Vilja-Lied" (F. Lehár)

Лог создания рипа

Exact Audio Copy V1.0 beta 3 from 29. August 2011
EAC extraction logfile from 19. October 2012, 20:19
Luis Cobos / Vienna Concerto (CBS 463136 2)
Used drive : TSSTcorpCDDVDW TS-L633C Adapter: 2 ID: 0
Read mode : Secure
Utilize accurate stream : Yes
Defeat audio cache : Yes
Make use of C2 pointers : No
Read offset correction : 6
Overread into Lead-In and Lead-Out : No
Fill up missing offset samples with silence : Yes
Delete leading and trailing silent blocks : No
Null samples used in CRC calculations : Yes
Used interface : Native Win32 interface for Win NT & 2000
Used output format : Internal WAV Routines
Sample format : 44.100 Hz; 16 Bit; Stereo
TOC of the extracted CD
Track | Start | Length | Start sector | End sector
---------------------------------------------------------
1 | 0:00.32 | 5:35.20 | 32 | 25176
2 | 5:35.52 | 8:10.55 | 25177 | 61981
3 | 13:46.32 | 4:58.55 | 61982 | 84386
4 | 18:45.12 | 7:38.40 | 84387 | 118776
5 | 26:23.52 | 6:00.08 | 118777 | 145784
6 | 32:23.60 | 4:24.02 | 145785 | 165586
7 | 36:47.62 | 5:24.15 | 165587 | 189901
8 | 42:12.02 | 10:14.63 | 189902 | 236014
9 | 52:26.65 | 12:27.32 | 236015 | 292071
Range status and errors
Selected range
Filename C:\Users\user\Desktop\Luis Cobos - Vienna Concerto (CBS 463136 2).wav
Peak level 98.1 %
Extraction speed 1.5 X
Range quality 100.0 %
Test CRC C2B563C3
Copy CRC C2B563C3
Copy OK
No errors occurred
AccurateRip summary
Track 1 not present in database
Track 2 not present in database
Track 3 not present in database
Track 4 not present in database
Track 5 not present in database
Track 6 not present in database
Track 7 not present in database
Track 8 not present in database
Track 9 not present in database
None of the tracks are present in the AccurateRip database
End of status report
1989. OPERA MAGNA ●★● EPC 466141 2 ●★● Austria Год выпуска диска : 1989
Производитель диска : Austria
Аудио кодек : FLAC
Тип рипа : image+.cue (Test & Copy)
Битрейт аудио : lossless
Продолжительность : 70:04
Лейбл : Epic
Каталожный номер : EPC 466141 2
Источник (релизер): Рип оригинального диска из личной коллекции
Сканы: прилагаются


01. Carmen Passion
02. Il trovatore
04. D'inmenso giubilo
05. Gloire immortelle
06. Di subito
07. Aida
08. Valse Brindisi
09. Turandot
10. La traviata
11. Carmina Burana
12. Luce di Luna
-

Подробнее о треках01. Carmen Passion
(Bizet/Arr: Luis Cobos)
02. Il trovatore
"Il figlio di la zingarella" (Verdi)
03. Nabucco
"Va pensiero" (Verdi)
04. D'inmenso giubilo
"Lucía de Lammermoor" (Donizetti)
05. Gloire immortelle
"Fausto" (Gounod)"La traviata" (Verdi)"Rigoletto" (Verdi)"Norma" (Bellini)"Il trovatore" (Verdi)"Norma" (Bellini)
06. Di subito
"Don Pasquale" (Donizetti)"Lucía de Lammermoor" (Donizetti)"La novia vendida" (Smetana)"Il trovatore" (Verdi)"La traviata" (Verdi)"La sonámbula" (Bellini)"Un ballo in maschera" (Verdi)
07. Aida
"Marche triunfale" (Verdi)
08. Valse Brindisi
"Fausto" (Gounod)"La traviata" (Verdi)"La Gioconda" (Ponchielli)"La traviata" (Verdi)
09. Turandot
"Nessun dorma/Finale" (Puccini)
10. La traviata
"Preludio" (Verdi)
11. Carmina Burana
"O Fortuna" (C. Orff)
12. Luce di Luna
"Lucía de Lammermoor" (Donizetti)"La traviata" (Verdi)"Norma" (Bellini)

Лог создания рипа

Exact Audio Copy V1.0 beta 3 from 29. August 2011
EAC extraction logfile from 10. October 2012, 20:44
Luis Cobos / Opera Magna (EPC 466141 2)
Used drive : TSSTcorpCDDVDW TS-L633C Adapter: 2 ID: 0
Read mode : Secure
Utilize accurate stream : Yes
Defeat audio cache : Yes
Make use of C2 pointers : No
Read offset correction : 6
Overread into Lead-In and Lead-Out : No
Fill up missing offset samples with silence : Yes
Delete leading and trailing silent blocks : No
Null samples used in CRC calculations : Yes
Used interface : Native Win32 interface for Win NT & 2000
Used output format : Internal WAV Routines
Sample format : 44.100 Hz; 16 Bit; Stereo
TOC of the extracted CD
Track | Start | Length | Start sector | End sector
---------------------------------------------------------
1 | 0:00.00 | 5:03.32 | 0 | 22756
2 | 5:03.32 | 2:56.73 | 22757 | 36029
3 | 8:00.30 | 4:13.65 | 36030 | 55069
4 | 12:14.20 | 5:05.25 | 55070 | 77969
5 | 17:19.45 | 9:01.67 | 77970 | 118611
6 | 26:21.37 | 7:04.03 | 118612 | 150414
7 | 33:25.40 | 4:17.17 | 150415 | 169706
8 | 37:42.57 | 8:24.55 | 169707 | 207561
9 | 46:07.37 | 6:51.13 | 207562 | 238399
10 | 52:58.50 | 4:09.42 | 238400 | 257116
11 | 57:08.17 | 2:25.23 | 257117 | 268014
12 | 59:33.40 | 10:30.22 | 268015 | 315286
Range status and errors
Selected range
Filename C:\Users\user\Desktop\Luis Cobos - Opera Magna (EPC 466141 2).wav
Peak level 97.7 %
Extraction speed 1.7 X
Range quality 100.0 %
Test CRC 9B4AA6EC
Copy CRC 9B4AA6EC
Copy OK
No errors occurred
AccurateRip summary
Track 1 accurately ripped (confidence 1) [D88EE078] (AR v2)
Track 2 accurately ripped (confidence 1) [B95E0E5E] (AR v2)
Track 3 accurately ripped (confidence 1) [8E46F0A8] (AR v2)
Track 4 accurately ripped (confidence 1) [7BA090DD] (AR v2)
Track 5 accurately ripped (confidence 1) [62FDD0F5] (AR v2)
Track 6 accurately ripped (confidence 1) [5DC4A45A] (AR v2)
Track 7 accurately ripped (confidence 1) [554F18F8] (AR v2)
Track 8 accurately ripped (confidence 1) [441E842A] (AR v2)
Track 9 accurately ripped (confidence 1) [7CA4DE60] (AR v2)
Track 10 accurately ripped (confidence 1) [1ABCF67D] (AR v2)
Track 11 accurately ripped (confidence 1) [193DFE25] (AR v2)
Track 12 accurately ripped (confidence 1) [4027835C] (AR v2)
All tracks accurately ripped
End of status report
1990. SUITE 1700 ●★● EPC 467603 2 ●★● Austria Год выпуска диска : 1990
Производитель диска : Austria
Аудио кодек : FLAC
Тип рипа : image+.cue (Test & Copy)
Битрейт аудио : lossless
Продолжительность : 55:24
Лейбл : Epic
Каталожный номер : EPC 467603 2
Источник (релизер): Рип оригинального диска из личной коллекции
Сканы: прилагаются


01. Suite 1700
02. L'estate III
03. Aria
04. L'autunno I
05. La reina de Saba
06. Concierto de Brandenburgo Nº III
07. Suite 1702
08. L'inverno I
09. L'inverno II
10. Adagio
11. La primavera I
12. Canon
13. Bandinerie
14. Concierto para oboe
-

Подробнее о треках01. Suite 1700
"La primavera" (Vivaldi)"Conc. La menor (Vivaldi)"El otoño" (Vivaldi)"La reina de Saba" (Handel)"Libro de Ana Magdalena" (Bach)"Fuegos de artificio" (Handel)"El Mesías" (Handel)
02. L'estate III
de "Las cuatro estaciones" (Vivaldi)
03. Aria
de la "Suite #3" (Bach)
04. L'autunno I
de "Las cuatro estaciones" (Vivaldi)
05. La reina de Saba
(Handel)
06. Concierto de Brandenburgo Nº III
(J.S. Bach)
07. Suite 1702
"Música acuática" (Handel)"Concierto para 2 mandolinas" (Vivaldi)"Ave María" (Bach/Gounod)
08. L'inverno I
de "Las cuatro estaciones" (Vivaldi)
09. L'inverno II
de "Las cuatro estaciones" (Vivaldi)
10. Adagio
(Albinoni)
11. La primavera I
de "Las cuatro estaciones" (Vivaldi)
12. Canon
(Pachebel)
13. Bandinerie
de la "Suite #2" (Bach)
14. Concierto para oboe
(Marcello)

Лог создания рипа

Exact Audio Copy V1.0 beta 3 from 29. August 2011
EAC extraction logfile from 9. November 2012, 20:08
Luis Cobos / Suite 1700 (EPC 467603 2)
Used drive : TSSTcorpCDDVDW TS-L633C Adapter: 2 ID: 0
Read mode : Secure
Utilize accurate stream : Yes
Defeat audio cache : Yes
Make use of C2 pointers : No
Read offset correction : 6
Overread into Lead-In and Lead-Out : No
Fill up missing offset samples with silence : Yes
Delete leading and trailing silent blocks : No
Null samples used in CRC calculations : Yes
Used interface : Native Win32 interface for Win NT & 2000
Used output format : Internal WAV Routines
Sample format : 44.100 Hz; 16 Bit; Stereo
TOC of the extracted CD
Track | Start | Length | Start sector | End sector
---------------------------------------------------------
1 | 0:00.32 | 6:23.45 | 32 | 28801
2 | 6:24.02 | 2:58.28 | 28802 | 42179
3 | 9:22.30 | 4:27.67 | 42180 | 62271
4 | 13:50.22 | 4:58.03 | 62272 | 84624
5 | 18:48.25 | 3:29.32 | 84625 | 100331
6 | 22:17.57 | 2:18.05 | 100332 | 110686
7 | 24:35.62 | 4:47.20 | 110687 | 132231
8 | 29:23.07 | 3:48.73 | 132232 | 149404
9 | 33:12.05 | 1:53.02 | 149405 | 157881
10 | 35:05.07 | 4:40.20 | 157882 | 178901
11 | 39:45.27 | 3:34.55 | 178902 | 195006
12 | 43:20.07 | 5:48.00 | 195007 | 221106
13 | 49:08.07 | 1:34.25 | 221107 | 228181
14 | 50:42.32 | 4:42.10 | 228182 | 249341
Range status and errors
Selected range
Filename C:\Users\user\Desktop\Luis Cobos - Suite 1700 (EPC 467603 2).wav
Peak level 100.0 %
Extraction speed 1.4 X
Range quality 100.0 %
Test CRC 3F91A15E
Copy CRC 3F91A15E
Copy OK
No errors occurred
AccurateRip summary
Track 1 accurately ripped (confidence 1) [27207A2D] (AR v2)
Track 2 accurately ripped (confidence 1) [590CB281] (AR v2)
Track 3 accurately ripped (confidence 1) [672CDF1F] (AR v2)
Track 4 accurately ripped (confidence 1) [D434EC89] (AR v2)
Track 5 accurately ripped (confidence 1) [ED388FF5] (AR v2)
Track 6 accurately ripped (confidence 1) [DEA5F6E6] (AR v2)
Track 7 accurately ripped (confidence 1) [A32B8664] (AR v2)
Track 8 accurately ripped (confidence 1) [BCE0B538] (AR v2)
Track 9 accurately ripped (confidence 1) [E77DFF1D] (AR v2)
Track 10 accurately ripped (confidence 1) [FBE11D73] (AR v2)
Track 11 accurately ripped (confidence 1) [6B456360] (AR v2)
Track 12 accurately ripped (confidence 1) [7C62AD23] (AR v2)
Track 13 accurately ripped (confidence 1) [39CA6AA7] (AR v2)
Track 14 accurately ripped (confidence 1) [F5BD59FB] (AR v2)
All tracks accurately ripped
End of status report

1993. VIENTO DEL SUR ●★● EPC 473959 2 ●★● Austria

Год выпуска диска : 1993
Производитель диска : Austria
Аудио кодек : FLAC
Тип рипа : image+.cue (Test & Copy)
Битрейт аудио : lossless
Продолжительность : 48:22
Лейбл : Epic
Каталожный номер : EPC 473959 2
Источник (релизер): Рип оригинального диска из личной коллекции
Сканы: прилагаются


01. Supermambo
02. Viento del Sur
03. Perfidia
04. Cerezo rosa
05. Unidos por el tango
06. Rumbo a Jerez
07. Altiplano
08. Volver al tango
09. Te he de querer mientras viva

Лог создания рипа

Exact Audio Copy V1.0 beta 3 from 29. August 2011
EAC extraction logfile from 19. December 2012, 13:18
Luis Cobos / Viento del Sur (EPC 473959 2)
Used drive : TSSTcorpCDDVDW TS-L633C Adapter: 2 ID: 0
Read mode : Secure
Utilize accurate stream : Yes
Defeat audio cache : Yes
Make use of C2 pointers : No
Read offset correction : 6
Overread into Lead-In and Lead-Out : No
Fill up missing offset samples with silence : Yes
Delete leading and trailing silent blocks : No
Null samples used in CRC calculations : Yes
Used interface : Native Win32 interface for Win NT & 2000
Used output format : Internal WAV Routines
Sample format : 44.100 Hz; 16 Bit; Stereo
TOC of the extracted CD
Track | Start | Length | Start sector | End sector
---------------------------------------------------------
1 | 0:00.00 | 6:48.00 | 0 | 30599
2 | 6:48.00 | 4:05.00 | 30600 | 48974
3 | 10:53.00 | 2:56.00 | 48975 | 62174
4 | 13:49.00 | 2:41.50 | 62175 | 74299
5 | 16:30.50 | 5:39.25 | 74300 | 99749
6 | 22:10.00 | 5:41.57 | 99750 | 125381
7 | 27:51.57 | 7:46.18 | 125382 | 160349
8 | 35:38.00 | 7:13.00 | 160350 | 192824
9 | 42:51.00 | 5:31.25 | 192825 | 217674
Range status and errors
Selected range
Filename C:\Users\user\Desktop\Luis Cobos - Viento del Sur (EPC 473959 2).wav
Peak level 100.0 %
Extraction speed 1.1 X
Range quality 99.9 %
Test CRC 36385BF9
Copy CRC 36385BF9
Copy OK
No errors occurred
AccurateRip summary
Track 1 not present in database
Track 2 not present in database
Track 3 not present in database
Track 4 not present in database
Track 5 not present in database
Track 6 not present in database
Track 7 not present in database
Track 8 not present in database
Track 9 not present in database
None of the tracks are present in the AccurateRip database
End of status report

1994. OSCARS (2CD) ●★● EPC 478180 2 ●★● Austria

Год выпуска диска : 1994
Производитель диска : Austria
Аудио кодек : FLAC
Тип рипа : image+.cue (Test & Copy)
Битрейт аудио : lossless
Продолжительность : 65:25 / 53:24
Лейбл : Epic
Каталожный номер : EPC 478180 2
Источник (релизер): Рип оригинального диска из личной коллекции
Сканы: прилагаются

DISC 1
01. Star Wars
02. Moon River
03. Chariots of Fire
04. West Side Story
05. Doctor Zhivago
06. Around the World in 80 Days
07. Somewhere Over the Rainbow
08. The Continental
09. Exodus
10. Sarabande
11. The Last Emperior
12. A Place in the Sun
13. Rainbow Suite

DISC 2
01. Ben Hur
02. Out of Africa
03. Shaft
04. Sunset Boulevard
05. Lawrence of Arabia
06. Colonel Bogey March
07. White Christmas
08. High Noon
09. Stars Suite
10. Love is a Many-splendored Thing
11. When You Wish Upon a Star
12. Oscars

-

Лог создания рипа - CD1

Exact Audio Copy V1.0 beta 3 from 29. August 2011
EAC extraction logfile from 23. November 2012, 10:23
Luis Cobos / Oscars (CD1) (EPC 478180 2)
Used drive : TSSTcorpCDDVDW TS-L633C Adapter: 2 ID: 0
Read mode : Secure
Utilize accurate stream : Yes
Defeat audio cache : Yes
Make use of C2 pointers : No
Read offset correction : 6
Overread into Lead-In and Lead-Out : No
Fill up missing offset samples with silence : Yes
Delete leading and trailing silent blocks : No
Null samples used in CRC calculations : Yes
Used interface : Native Win32 interface for Win NT & 2000
Used output format : Internal WAV Routines
Sample format : 44.100 Hz; 16 Bit; Stereo
TOC of the extracted CD
Track | Start | Length | Start sector | End sector
---------------------------------------------------------
1 | 0:00.00 | 5:42.47 | 0 | 25696
2 | 5:42.47 | 4:41.40 | 25697 | 46811
3 | 10:24.12 | 5:26.68 | 46812 | 71329
4 | 15:51.05 | 9:19.10 | 71330 | 113264
5 | 25:10.15 | 4:35.60 | 113265 | 133949
6 | 29:46.00 | 3:30.25 | 133950 | 149724
7 | 33:16.25 | 3:19.62 | 149725 | 164711
8 | 36:36.12 | 3:10.15 | 164712 | 178976
9 | 39:46.27 | 2:45.65 | 178977 | 191416
10 | 42:32.17 | 4:10.65 | 191417 | 210231
11 | 46:43.07 | 6:33.35 | 210232 | 239741
12 | 53:16.42 | 8:30.60 | 239742 | 278051
13 | 61:47.27 | 3:37.58 | 278052 | 294384
Range status and errors
Selected range
Filename C:\Users\user\Desktop\Luis Cobos - Oscars (CD1) (EPC 478180 2).wav
Peak level 100.0 %
Extraction speed 1.6 X
Range quality 100.0 %
Test CRC E2EF2517
Copy CRC E2EF2517
Copy OK
No errors occurred
AccurateRip summary
Track 1 accurately ripped (confidence 3) [6341E61F] (AR v1)
Track 2 accurately ripped (confidence 3) [D0933045] (AR v1)
Track 3 accurately ripped (confidence 3) [74BA230E] (AR v1)
Track 4 accurately ripped (confidence 3) [C06D979E] (AR v1)
Track 5 accurately ripped (confidence 3) [D3E724AD] (AR v1)
Track 6 accurately ripped (confidence 3) [87B98DDF] (AR v1)
Track 7 accurately ripped (confidence 3) [962D20BD] (AR v1)
Track 8 accurately ripped (confidence 3) [916AE6CE] (AR v1)
Track 9 accurately ripped (confidence 3) [FF665392] (AR v1)
Track 10 accurately ripped (confidence 3) [D6154284] (AR v1)
Track 11 accurately ripped (confidence 2) [0E1B070D] (AR v1)
Track 12 accurately ripped (confidence 3) [3F418C92] (AR v1)
Track 13 accurately ripped (confidence 3) [14316964] (AR v1)
All tracks accurately ripped
End of status report

Лог создания рипа - CD2

Exact Audio Copy V1.0 beta 3 from 29. August 2011
EAC extraction logfile from 23. November 2012, 11:43
Luis Cobos / Oscars (CD2) (EPC 478180 2)
Used drive : TSSTcorpCDDVDW TS-L633C Adapter: 2 ID: 0
Read mode : Secure
Utilize accurate stream : Yes
Defeat audio cache : Yes
Make use of C2 pointers : No
Read offset correction : 6
Overread into Lead-In and Lead-Out : No
Fill up missing offset samples with silence : Yes
Delete leading and trailing silent blocks : No
Null samples used in CRC calculations : Yes
Used interface : Native Win32 interface for Win NT & 2000
Used output format : Internal WAV Routines
Sample format : 44.100 Hz; 16 Bit; Stereo
TOC of the extracted CD
Track | Start | Length | Start sector | End sector
---------------------------------------------------------
1 | 0:00.00 | 3:32.65 | 0 | 15964
2 | 3:32.65 | 4:13.27 | 15965 | 34966
3 | 7:46.17 | 4:41.68 | 34967 | 56109
4 | 12:28.10 | 7:41.62 | 56110 | 90746
5 | 20:09.72 | 4:20.60 | 90747 | 110306
6 | 24:30.57 | 3:19.18 | 110307 | 125249
7 | 27:50.00 | 3:02.65 | 125250 | 138964
8 | 30:52.65 | 3:05.70 | 138965 | 152909
9 | 33:58.60 | 6:13.10 | 152910 | 180894
10 | 40:11.70 | 3:59.25 | 180895 | 198844
11 | 44:11.20 | 4:15.37 | 198845 | 218006
12 | 48:26.57 | 4:57.65 | 218007 | 240346
Range status and errors
Selected range
Filename C:\Users\user\Desktop\Luis Cobos - Oscars (CD2) (EPC 478180 2).wav
Peak level 100.0 %
Extraction speed 1.4 X
Range quality 100.0 %
Test CRC 94131966
Copy CRC 94131966
Copy OK
No errors occurred
AccurateRip summary
Track 1 accurately ripped (confidence 2) [132C0D9F] (AR v1)
Track 2 accurately ripped (confidence 2) [3EB30422] (AR v1)
Track 3 accurately ripped (confidence 2) [C05101FC] (AR v1)
Track 4 accurately ripped (confidence 2) [0431BEE2] (AR v1)
Track 5 accurately ripped (confidence 2) [B32F6A1A] (AR v1)
Track 6 accurately ripped (confidence 2) [A851EF48] (AR v1)
Track 7 accurately ripped (confidence 3) [3D1B6DF0] (AR v1)
Track 8 accurately ripped (confidence 2) [55D98B12] (AR v1)
Track 9 accurately ripped (confidence 2) [21A7CE71] (AR v1)
Track 10 accurately ripped (confidence 2) [B3EAADE3] (AR v1)
Track 11 accurately ripped (confidence 2) [0CEF5E3C] (AR v1)
Track 12 accurately ripped (confidence 2) [43E80D0F] (AR v1)
All tracks accurately ripped
End of status report

1997. AMOR ●★● EPC 489252 2 ●★● Austria

Год выпуска диска : 1997
Производитель диска : Austria
Аудио кодек : FLAC
Тип рипа : image+.cue (Test & Copy)
Битрейт аудио : lossless
Продолжительность : 53:32
Лейбл : Epic
Каталожный номер : EPC 489252 2
Источник (релизер): Рип оригинального диска из личной коллекции
Сканы: прилагаются


01. Aria d'amore
02. Amor sin fin
03. Todo el amor
04. Butterfly
05. O sole mio
06. Love's Theme
07. White Flowers
08. Can't Help Falling in Love With You
09. Recuerdos de Alhambra
10. En un lugar de la Mancha - Nocturno
11. Irish Woman

-

Лог создания рипа

Exact Audio Copy V1.0 beta 3 from 29. August 2011
EAC extraction logfile from 23. November 2012, 12:20
Luis Cobos / Amor (EPC 489252 2)
Used drive : TSSTcorpCDDVDW TS-L633C Adapter: 2 ID: 0
Read mode : Secure
Utilize accurate stream : Yes
Defeat audio cache : Yes
Make use of C2 pointers : No
Read offset correction : 6
Overread into Lead-In and Lead-Out : No
Fill up missing offset samples with silence : Yes
Delete leading and trailing silent blocks : No
Null samples used in CRC calculations : Yes
Used interface : Native Win32 interface for Win NT & 2000
Used output format : Internal WAV Routines
Sample format : 44.100 Hz; 16 Bit; Stereo
TOC of the extracted CD
Track | Start | Length | Start sector | End sector
---------------------------------------------------------
1 | 0:00.00 | 5:35.00 | 0 | 25124
2 | 5:35.00 | 6:07.02 | 25125 | 52651
3 | 11:42.02 | 5:13.00 | 52652 | 76126
4 | 16:55.02 | 4:28.28 | 76127 | 96254
5 | 21:23.30 | 4:08.22 | 96255 | 114876
6 | 25:31.52 | 4:22.45 | 114877 | 134571
7 | 29:54.22 | 4:43.05 | 134572 | 155801
8 | 34:37.27 | 4:32.05 | 155802 | 176206
9 | 39:09.32 | 4:21.05 | 176207 | 195786
10 | 43:30.37 | 4:49.15 | 195787 | 217476
11 | 48:19.52 | 5:12.33 | 217477 | 240909
Range status and errors
Selected range
Filename C:\Users\user\Desktop\Luis Cobos - Amor (EPC 489252 2).wav
Peak level 98.0 %
Extraction speed 3.5 X
Range quality 99.9 %
Test CRC 0077A946
Copy CRC 0077A946
Copy OK
No errors occurred
AccurateRip summary
Track 1 accurately ripped (confidence 3) [BF192CD4] (AR v2)
Track 2 accurately ripped (confidence 3) [A0540E29] (AR v2)
Track 3 accurately ripped (confidence 3) [AC2B4CE6] (AR v2)
Track 4 accurately ripped (confidence 3) [70C92AE6] (AR v2)
Track 5 accurately ripped (confidence 3) [9333A8DB] (AR v2)
Track 6 accurately ripped (confidence 3) [43CF62E0] (AR v2)
Track 7 accurately ripped (confidence 3) [53637467] (AR v2)
Track 8 accurately ripped (confidence 3) [BD7A66DE] (AR v2)
Track 9 accurately ripped (confidence 3) [63F4437A] (AR v2)
Track 10 accurately ripped (confidence 3) [154FBDEC] (AR v2)
Track 11 accurately ripped (confidence 3) [0BE3E513] (AR v2)
All tracks accurately ripped
End of status report

1998. LA DANZA DE LOS CORCELES ●★● EPC 491747 2 ●★● Austria

Год выпуска диска : 1998
Производитель диска : Austria
Аудио кодек : FLAC
Тип рипа : image+.cue (Test & Copy)
Битрейт аудио : lossless
Продолжительность : 56:55
Лейбл : Epic
Каталожный номер : EPC 491747 2
Источник (релизер): Рип оригинального диска из личной коллекции
Сканы: прилагаются


01. Alazanes blancos (Radio Version)
02. La leyenda del beso
03. Recuerdos de la Alhambra
04. La calesera
05. Luisa Fernanda
06. Danza ritual de fuego
07. El tambor de granaderos
08. Vuelve a Jerez
09. Capricho espanol
10. Carmen
11. La alegria de la huerta
12. Sinfonia a caballo
13. Goyescas
14. Alazanes blancos
-

Лог создания рипа

Exact Audio Copy V1.0 beta 3 from 29. August 2011
EAC extraction logfile from 26. December 2012, 13:57
Luis Cobos / La Danza de los Corceles (EPC 491747 2)
Used drive : TSSTcorpCDDVDW TS-L633C Adapter: 2 ID: 0
Read mode : Secure
Utilize accurate stream : Yes
Defeat audio cache : Yes
Make use of C2 pointers : No
Read offset correction : 6
Overread into Lead-In and Lead-Out : No
Fill up missing offset samples with silence : Yes
Delete leading and trailing silent blocks : No
Null samples used in CRC calculations : Yes
Used interface : Native Win32 interface for Win NT & 2000
Used output format : Internal WAV Routines
Sample format : 44.100 Hz; 16 Bit; Stereo
TOC of the extracted CD
Track | Start | Length | Start sector | End sector
---------------------------------------------------------
1 | 0:00.00 | 2:43.57 | 0 | 12281
2 | 2:43.57 | 3:55.25 | 12282 | 29931
3 | 6:39.07 | 3:55.35 | 29932 | 47591
4 | 10:34.42 | 3:20.00 | 47592 | 62591
5 | 13:54.42 | 4:48.30 | 62592 | 84221
6 | 18:42.72 | 4:13.65 | 84222 | 103261
7 | 22:56.62 | 5:37.23 | 103262 | 128559
8 | 28:34.10 | 5:47.22 | 128560 | 154606
9 | 34:21.32 | 3:27.53 | 154607 | 170184
10 | 37:49.10 | 2:22.45 | 170185 | 180879
11 | 40:11.55 | 5:14.45 | 180880 | 204474
12 | 45:26.25 | 4:41.05 | 204475 | 225554
13 | 50:07.30 | 4:05.57 | 225555 | 243986
14 | 54:13.12 | 2:41.63 | 243987 | 256124
Range status and errors
Selected range
Filename C:\Users\user\Desktop\Luis Cobos - La Danza de los Corceles (EPC 491747 2).wav
Peak level 100.0 %
Extraction speed 3.8 X
Range quality 100.0 %
Test CRC BFAAE4C4
Copy CRC BFAAE4C4
Copy OK
No errors occurred
AccurateRip summary
Track 1 not present in database
Track 2 not present in database
Track 3 not present in database
Track 4 not present in database
Track 5 not present in database
Track 6 not present in database
Track 7 not present in database
Track 8 not present in database
Track 9 not present in database
Track 10 not present in database
Track 11 not present in database
Track 12 not present in database
Track 13 not present in database
Track 14 not present in database
None of the tracks are present in the AccurateRip database
End of status report

2000. VIVA MEXICO! ●★● 012 157 098-2 ●★● USA

Год выпуска диска : 2000
Производитель диска : США
Аудио кодек : FLAC
Тип рипа : image+.cue (Test & Copy)
Битрейт аудио : lossless
Продолжительность : 60:42
Лейбл : Universal Music Latino
Каталожный номер : 012 157 098-2
Источник (релизер): Рип оригинального диска из личной коллекции
Сканы: прилагаются


01. Los Huapangos
02. Severiana
03. Viva México
04. Así es México
05. El son de Veracruz
06. El árbol de la noche triste
07. La Culebra
08. Huapango
09. Zacatecas
10. La borrachita
11. Sones de Mariachi
-

Лог создания рипа

Exact Audio Copy V1.0 beta 3 from 29. August 2011
EAC extraction logfile from 1. February 2013, 11:38
Luis Cobos / Viva Mexico (0601215709827)
Used drive : TSSTcorpCDDVDW TS-L633C Adapter: 2 ID: 0
Read mode : Secure
Utilize accurate stream : Yes
Defeat audio cache : Yes
Make use of C2 pointers : No
Read offset correction : 6
Overread into Lead-In and Lead-Out : No
Fill up missing offset samples with silence : Yes
Delete leading and trailing silent blocks : No
Null samples used in CRC calculations : Yes
Used interface : Native Win32 interface for Win NT & 2000
Used output format : Internal WAV Routines
Sample format : 44.100 Hz; 16 Bit; Stereo
TOC of the extracted CD
Track | Start | Length | Start sector | End sector
---------------------------------------------------------
1 | 0:00.00 | 6:45.17 | 0 | 30391
2 | 6:45.17 | 4:23.47 | 30392 | 50163
3 | 11:08.64 | 5:04.01 | 50164 | 72964
4 | 16:12.65 | 6:34.10 | 72965 | 102524
5 | 22:47.00 | 6:48.10 | 102525 | 133134
6 | 29:35.10 | 3:43.42 | 133135 | 149901
7 | 33:18.52 | 2:26.33 | 149902 | 160884
8 | 35:45.10 | 8:50.40 | 160885 | 200674
9 | 44:35.50 | 3:08.59 | 200675 | 214833
10 | 47:44.34 | 3:48.21 | 214834 | 231954
11 | 51:32.55 | 9:09.20 | 231955 | 273149
Range status and errors
Selected range
Filename C:\Users\user\Desktop\Luis Cobos - Viva Mexico (0601215709827).wav
Peak level 99.1 %
Extraction speed 3.9 X
Range quality 100.0 %
Test CRC 271DD89B
Copy CRC 271DD89B
Copy OK
No errors occurred
AccurateRip summary
Track 1 not present in database
Track 2 not present in database
Track 3 not present in database
Track 4 not present in database
Track 5 not present in database
Track 6 not present in database
Track 7 not present in database
Track 8 not present in database
Track 9 not present in database
Track 10 not present in database
Track 11 not present in database
None of the tracks are present in the AccurateRip database
End of status report

2008. ENCANTADOS [Live] ●★● 886974166023 ●★● EU (Germany)

Год выпуска диска : 2008
Производитель диска : Germany
Аудио кодек : FLAC
Тип рипа : image+.cue (Test & Copy)
Битрейт аудио : lossless
Продолжительность : 66:56
Лейбл : Sony Music Entertainment España
Каталожный номер : 886974166023
Источник (релизер): Рип оригинального диска из личной коллекции
Сканы: прилагаются


01. Zarzuela (Suite)
02. Ojos verdes
03. Contigo en la distancia
04. Tu me acostumbraste
05. El dia que me quieras
06. Luna de miel
07. Capriccio Russo
08. Himno al amor
09. O mio babbino caro
10. People
11. Et maintenant
12. Tutta forza
13. Summertime
14. Over the Rainbow
15. No llores por mi Argentina
-

Лог создания рипа

Exact Audio Copy V1.0 beta 3 from 29. August 2011
EAC extraction logfile from 16. July 2013, 20:22
Paloma San Basilio & Luis Cobos / Encantados (886974166023)
Used drive : TSSTcorpCDDVDW TS-L633C Adapter: 2 ID: 0
Read mode : Secure
Utilize accurate stream : Yes
Defeat audio cache : Yes
Make use of C2 pointers : No
Read offset correction : 6
Overread into Lead-In and Lead-Out : No
Fill up missing offset samples with silence : Yes
Delete leading and trailing silent blocks : No
Null samples used in CRC calculations : Yes
Used interface : Native Win32 interface for Win NT & 2000
Used output format : Internal WAV Routines
Sample format : 44.100 Hz; 16 Bit; Stereo
TOC of the extracted CD
Track | Start | Length | Start sector | End sector
---------------------------------------------------------
1 | 0:00.00 | 8:10.64 | 0 | 36813
2 | 8:10.64 | 4:39.25 | 36814 | 57763
3 | 12:50.14 | 1:52.32 | 57764 | 66195
4 | 14:42.46 | 2:05.59 | 66196 | 75629
5 | 16:48.30 | 4:23.58 | 75630 | 95412
6 | 21:12.13 | 3:42.28 | 95413 | 112090
7 | 24:54.41 | 5:31.40 | 112091 | 136955
8 | 30:26.06 | 3:08.69 | 136956 | 151124
9 | 33:35.00 | 3:47.15 | 151125 | 168164
10 | 37:22.15 | 3:28.42 | 168165 | 183806
11 | 40:50.57 | 4:41.42 | 183807 | 204923
12 | 45:32.24 | 7:37.53 | 204924 | 239251
13 | 53:10.02 | 4:21.29 | 239252 | 258855
14 | 57:31.31 | 3:40.24 | 258856 | 275379
15 | 61:11.55 | 5:45.54 | 275380 | 301308
Range status and errors
Selected range
Filename D:\Paloma San Basilio & Luis Cobos - Encantados (886974166023).wav
Peak level 100.0 %
Extraction speed 3.5 X
Range quality 100.0 %
Test CRC D7306529
Copy CRC D7306529
Copy OK
No errors occurred
AccurateRip summary
Track 1 not present in database
Track 2 not present in database
Track 3 not present in database
Track 4 not present in database
Track 5 not present in database
Track 6 not present in database
Track 7 not present in database
Track 8 not present in database
Track 9 not present in database
Track 10 not present in database
Track 11 not present in database
Track 12 not present in database
Track 13 not present in database
Track 14 not present in database
Track 15 not present in database
None of the tracks are present in the AccurateRip database
End of status report
---- CUETools DB Plugin V2.1.4
[CTDB TOCID: am1wgGm_VDyDZaFwvVy1aA4ntFQ-] disk not present in database
Submit result: am1wgGm_VDyDZaFwvVy1aA4ntFQ- has been uploaded
==== Log checksum 41E49222833C449949B9C71F1A580D16D5B721E47C0738BD64E0B1CA02407C02 ====
- -



Показать сообщения:    

Текущее время: 04-Дек 04:55

Часовой пояс: UTC + 3


Вы не можете начинать темы
Вы не можете отвечать на сообщения
Вы не можете редактировать свои сообщения
Вы не можете удалять свои сообщения
Вы не можете голосовать в опросах
Вы не можете прикреплять файлы к сообщениям
Вы не можете скачивать файлы