(Classical Crossover) Placido Domingo - Sonadores de Espana (With Julio Iglesias, Paco de Lucia, Ernesto Bitetti) - 1989, FLAC (image+.cue), lossless


 

[Цитировать]

-Plácido Domingo - Soñadores de España- Год выпуска диска : 1989
Производитель диска : Austria
Аудио кодек : FLAC
Тип рипа : image+.cue (Test & Copy)
Битрейт аудио : lossless
Продолжительность : 35:38
Лейбл : CBS
Каталожный номер : 5099746607722 / CBS 466077 2
Источник (релизер): Рип оригинального диска из личной коллекции
Сканы: прилагаются


01. El grito de América
02. Si yo fuera él
03. Soñadores de España - duet with Julio Iglesias
04. Yo seré tu primer hombre
05. Sevilla
06. Canción para una reina
07. Él necesita ayuda
08. Los dos estamos queriendo
Manuel Alejandro, автор песен
Paco de Lucia, гитара (#5)
Ernesto Bitetti, гитара (#6)

-Дополнительная информация: Студийный альбом Пласидо с песнями испанского маэстро Мануэля Алехандро, включает дуэт с Хулио Иглесиасом.-

Лог создания рипа

Exact Audio Copy V1.0 beta 3 from 29. August 2011
EAC extraction logfile from 12. January 2013, 15:17
Placido Domingo / Sonadores de Espana (CBS 466077 2)
Used drive : TSSTcorpCDDVDW TS-L633C Adapter: 2 ID: 0
Read mode : Secure
Utilize accurate stream : Yes
Defeat audio cache : Yes
Make use of C2 pointers : No
Read offset correction : 6
Overread into Lead-In and Lead-Out : No
Fill up missing offset samples with silence : Yes
Delete leading and trailing silent blocks : No
Null samples used in CRC calculations : Yes
Used interface : Native Win32 interface for Win NT & 2000
Used output format : Internal WAV Routines
Sample format : 44.100 Hz; 16 Bit; Stereo
TOC of the extracted CD
Track | Start | Length | Start sector | End sector
---------------------------------------------------------
1 | 0:00.00 | 4:26.17 | 0 | 19966
2 | 4:26.17 | 4:11.63 | 19967 | 38854
3 | 8:38.05 | 5:27.42 | 38855 | 63421
4 | 14:05.47 | 3:52.45 | 63422 | 80866
5 | 17:58.17 | 4:26.13 | 80867 | 100829
6 | 22:24.30 | 5:08.30 | 100830 | 123959
7 | 27:32.60 | 4:45.37 | 123960 | 145371
8 | 32:18.22 | 3:20.25 | 145372 | 160396
Range status and errors
Selected range
Filename C:\Users\user\Desktop\Placido Domingo - Sonadores de Espana (CBS 466077 2).wav
Peak level 93.5 %
Extraction speed 1.1 X
Range quality 100.0 %
Test CRC 07E2A3F2
Copy CRC 07E2A3F2
Copy OK
No errors occurred
AccurateRip summary
Track 1 accurately ripped (confidence 2) [6107FB34] (AR v1)
Track 2 accurately ripped (confidence 2) [39928B6B] (AR v1)
Track 3 accurately ripped (confidence 2) [9735BE86] (AR v1)
Track 4 accurately ripped (confidence 2) [11421FF4] (AR v1)
Track 5 accurately ripped (confidence 2) [98AF0ACC] (AR v1)
Track 6 accurately ripped (confidence 2) [27DA5705] (AR v1)
Track 7 accurately ripped (confidence 2) [6474DAF9] (AR v1)
Track 8 accurately ripped (confidence 2) [708ED8E4] (AR v1)
All tracks accurately ripped
End of status report

Содержание индексной карты (.CUE)

REM GENRE Vocal
REM DATE 1989
REM DISCID 61085A08
REM COMMENT "ExactAudioCopy v1.0b3"
PERFORMER "Placido Domingo"
TITLE "Soñadores de España (CBS 466077 2)"
FILE "Placido Domingo - Sonadores de Espana (CBS 466077 2).wav" WAVE
TRACK 01 AUDIO
TITLE "El grito de América"
PERFORMER "Placido Domingo"
INDEX 01 00:00:00
TRACK 02 AUDIO
TITLE "Si yo fuera él"
PERFORMER "Placido Domingo"
INDEX 01 04:26:17
TRACK 03 AUDIO
TITLE "Soñadores de España (Duet With Julio Iglesias)"
PERFORMER "Placido Domingo"
INDEX 01 08:38:05
TRACK 04 AUDIO
TITLE "Yo seré tu primer hombre"
PERFORMER "Placido Domingo"
INDEX 00 14:03:35
INDEX 01 14:05:47
TRACK 05 AUDIO
TITLE "Sevilla"
PERFORMER "Placido Domingo"
INDEX 01 17:58:17
TRACK 06 AUDIO
TITLE "Canción para una reina"
PERFORMER "Placido Domingo"
INDEX 01 22:24:30
TRACK 07 AUDIO
TITLE "Él necesita ayuda"
PERFORMER "Placido Domingo"
INDEX 01 27:32:60
TRACK 08 AUDIO
TITLE "Los dos estamos queriendo"
PERFORMER "Placido Domingo"
INDEX 01 32:18:22

Скриншот спектра частот




Показать сообщения:    

Текущее время: 19-Янв 16:05

Часовой пояс: UTC + 3


Вы не можете начинать темы
Вы не можете отвечать на сообщения
Вы не можете редактировать свои сообщения
Вы не можете удалять свои сообщения
Вы не можете голосовать в опросах
Вы не можете прикреплять файлы к сообщениям
Вы не можете скачивать файлы