Париж: блистательные годы / Paris: The Luminous Years (Серии 1-2 из 2) (Перри Миллер Адато) [2010, Документальный, TVRip] Sub Rus


Статистика раздачи [Обновить пиров]
Размер:  1.05 GB   |    Зарегистрирован:  8 месяцев 22 дня   |    Скачан:  0 раз

Полного источника не было: Никогда

Личеров:  3  [  0 KB/s  ]   Подробная статистика пиров
 
   
 
 
 

[Цитировать]

Париж: блистательные годы / Paris: The Luminous Years
Год выпуска: 2010
Страна: Великобритания-США
Жанр: Документальный
Продолжительность: ~00:52:00 х 2 серии
Перевод: Субтитры
Русские субтитры: есть
Режиссер: Перри Миллер Адато
Описание: В Париже блистало солнце искусства. Он был олицетворением 20-го века. Если ты добился успеха в Париже, то перед тобой открывались все двери. С 1905 по 1930 годы Париж был Меккой, центром нового мира искусства, лабораторией опытов и новаторства. Туда стремился авангард всего мира, те, кто создавал современность. Казалось, что за одну ночь во всех крупных центрах Запада искусство прошлого, даже совсем недавнего, стало старомодным. Почему именно в Париже за 25 лет осуществилась революция в искусстве? Монмартр был маленьким местом, где постоянно встречались художники, обменивались новостями и сплетнями. Поблизости были их любимые места: местное кабаре "Проворный кролик", где собирались члены группы Пикассо, "Мулен Руж", привлекавший своей романтической обстановкой, цирк "Медрано", где они любили общаться с клоунами. Парижские художники, посмевшие говорить от имени современников, озарили три первых десятилетия 20-го века, годы, когда творилась современность.
Релиз группы:
Доп. информация: Запись с канала "Аруц 8". Фильмы на английском языке с двойными субтитрами (вшитыми) на русском языке и иврите. Перевод на русский язык: Лиля Апельбаум (ч.1) и Анастасия Майзель (ч.2). Субтитры: Видеофильм Интернэшнл.
Сэмплкачество: TVRip
формат: AVI
видеокодек: DivX
аудиокодек: MP3
Видео: 1300 Кbps, 640 х 480 (4:3), at 25.000 fps, MPEG-4 Visual (DivX 5) (Packed bitstream)(BVOP)
Аудио: 128 Kbps, 48.0 KHz, 2 channels, MPEG Audio (MP3) (Version 1) (Layer 3) (Joint stereo/MS Stereo)

MediaInfo

General
Complete name : D:\Док.фильмы\Paris The Luminous Years\1.avi
Format : AVI
Format/Info : Audio Video Interleave
File size : 536 MiB
Duration : 52mn 5s
Overall bit rate : 1 438 Kbps
Writing library : VirtualDub-MPEG2 build 24600/release
Video
ID : 0
Format : MPEG-4 Visual
Format settings, BVOP : 1
Format settings, QPel : No
Format settings, GMC : No warppoints
Format settings, Matrix : Default (H.263)
Muxing mode : Packed bitstream
Codec ID : DX50
Codec ID/Hint : DivX 5
Duration : 52mn 5s
Bit rate : 1 300 Kbps
Width : 640 pixels
Height : 480 pixels
Display aspect ratio : 4:3
Frame rate : 25.000 fps
Color space : YUV
Chroma subsampling : 4:2:0
Bit depth : 8 bits
Scan type : Progressive
Compression mode : Lossy
Bits/(Pixel*Frame) : 0.169
Stream size : 484 MiB (90%)
Writing library : DivX 6.8.5 (UTC 2009-08-20)
Audio
ID : 1
Format : MPEG Audio
Format version : Version 1
Format profile : Layer 3
Mode : Joint stereo
Mode extension : MS Stereo
Codec ID : 55
Codec ID/Hint : MP3
Duration : 52mn 5s
Bit rate mode : Constant
Bit rate : 128 Kbps
Channel(s) : 2 channels
Sampling rate : 48.0 KHz
Compression mode : Lossy
Stream size : 47.7 MiB (9%)
Alignment : Split accross interleaves
Interleave, duration : 40 ms (1.00 video frame)
Interleave, preload duration : 500 ms

Скриншоты

[teatrix.ru].t16831.torrent 
Торрент: Зарегистрирован [ 2016-03-17 00:08 ] · 9360B3B8A4E2C85DD383BB34DACA9936D6208570

Скачать .torrent

Скачать

2 KB

Статус: проверено
Скачан: 0 раз
Размер: 1.05 GB
terms.php



Быстрый ответ

Имя:

      
Для отправки сообщений необходимо включить JavaScript
Показать сообщения:    

Текущее время: 08-Дек 11:00

Часовой пояс: UTC + 3


Вы можете начинать темы
Вы можете отвечать на сообщения
Вы не можете редактировать свои сообщения
Вы не можете удалять свои сообщения
Вы не можете голосовать в опросах
Вы не можете прикреплять файлы к сообщениям
Вы можете скачивать файлы