(Classical Crossover) Alfie Boe - Franz Lehar: Love was a Dream / Franz Lehár: Love was a Dream - 2011, FLAC (tracks+.cue) lossless


 

[Цитировать]

Alfie Boe / Franz Lehar: Love was a Dream / Franz Lehár: Love was a Dream
Жанр: Classical Crossover
Страна-производитель диска: EU
Год издания диска: 2011
Издатель (лейбл): Decca
Номер по каталогу: BIEM/SDRM 4764543
Страна: Great Britan
Аудиокодек: FLAC
Тип рипа: tracks+.cue
Битрейт аудио: lossless
Продолжительность: 00:43:15
Источник: собственный рип
Наличие сканов в содержимом раздачи: нет
Треклист:
01. Just Believe It’s True (2:58)
02. Vilia (5:03)
03. Girls Were Made To Love And Kiss (3:11)
04. Oh Maiden, My Maiden (3:56)
05. You Are My Heart’s Delight (3:34)
06. Love Was A Dream (4:01)
07. Beautiful Italy (2:09)
08. Patiently Smiling (4:45)
09. Love Unspoken (3:24)
10. Friends, This Is The Life For Me! (3:08)
11. Beneath The Window (3:52)
12. Farewell, My Love, Farewell (3:52)

Лог создания рипа

Exact Audio Copy V1.0 beta 3 from 29. August 2011
Отчёт EAC об извлечении, выполненном 18. января 2013, 21:06
Alfie Boe / Franz Lehar: Love was a Dream (re-release)
Дисковод: Optiarc DVD RW AD-7280S Adapter: 2 ID: 0
Режим чтения : Достоверность
Использование точного потока : Да
Отключение кэша аудио : Да
Использование указателей C2 : Нет
Коррекция смещения при чтении : 48
Способность читать области Lead-in и Lead-out : Нет
Заполнение пропущенных сэмплов тишиной : Да
Удаление блоков с тишиной в начале и конце : Нет
При вычислениях CRC использовались нулевые сэмплы : Да
Интерфейс : Встроенный Win32-интерфейс для Win NT/2000
Обработка зазоров : Добавлено к предыдущему треку
Выходной формат : Пользовательский кодировщик
Выбранный битрейт : 768 kBit/s
Качество : Высокий
Добавление ID3-тега : Нет
Утилита сжатия : D:\EAC100b3\FLAC\FLAC.EXE
Дополнительные параметры : -V -8 -T "Genre=%genre%" -T "Artist=%artist%" -T "Title=%title%" -T "Album=%albumtitle%" -T "Date=%year%" -T "Tracknumber=%tracknr%" -T "Comment=%comment%" %source%
TOC извлечённого CD
Трек | Старт | Длительность | Начальный сектор | Конечный сектор
---------------------------------------------------------------------
1 | 0:00.00 | 2:58.01 | 0 | 13350
2 | 2:58.01 | 5:04.44 | 13351 | 36194
3 | 8:02.45 | 3:10.70 | 36195 | 50514
4 | 11:13.40 | 3:55.61 | 50515 | 68200
5 | 15:09.26 | 3:34.36 | 68201 | 84286
6 | 18:43.62 | 4:01.23 | 84287 | 102384
7 | 22:45.10 | 2:09.45 | 102385 | 112104
8 | 24:54.55 | 4:45.25 | 112105 | 133504
9 | 29:40.05 | 3:24.39 | 133505 | 148843
10 | 33:04.44 | 3:08.40 | 148844 | 162983
11 | 36:13.09 | 3:52.23 | 162984 | 180406
12 | 40:05.32 | 3:52.26 | 180407 | 197832
Трек 1
Имя файла D:\_Temp\Alfie Boe\Franz Lehar - Love was a Dream\01. Alfie Boe - Just Believe It’s True.wav
Длина предзазора 0:00:02.00
Пиковый уровень 94.0 %
Скорость извлечения 4.4 X
Качество трека 100.0 %
CRC теста D6082FEB
CRC копии D6082FEB
Точное извлечение (достоверность 1) [BFBE0187] (AR v2)
Копирование... OK
Трек 2
Имя файла D:\_Temp\Alfie Boe\Franz Lehar - Love was a Dream\02. Alfie Boe - Vilia.wav
Длина предзазора 0:00:02.12
Пиковый уровень 82.6 %
Скорость извлечения 5.3 X
Качество трека 100.0 %
CRC теста CA2B58DE
CRC копии CA2B58DE
Точное извлечение (достоверность 1) [45B400E4] (AR v2)
Копирование... OK
Трек 3
Имя файла D:\_Temp\Alfie Boe\Franz Lehar - Love was a Dream\03. Alfie Boe - Girls Were Made To Love And Kiss.wav
Длина предзазора 0:00:03.31
Пиковый уровень 94.1 %
Скорость извлечения 5.3 X
Качество трека 100.0 %
CRC теста 964F8703
CRC копии 964F8703
Точное извлечение (достоверность 1) [548CDF3B] (AR v2)
Копирование... OK
Трек 4
Имя файла D:\_Temp\Alfie Boe\Franz Lehar - Love was a Dream\04. Alfie Boe - Oh Maiden, My Maiden.wav
Длина предзазора 0:00:03.45
Пиковый уровень 86.8 %
Скорость извлечения 5.9 X
Качество трека 100.0 %
CRC теста D4F2DFD5
CRC копии D4F2DFD5
Точное извлечение (достоверность 1) [091FEE3D] (AR v2)
Копирование... OK
Трек 5
Имя файла D:\_Temp\Alfie Boe\Franz Lehar - Love was a Dream\05. Alfie Boe - You Are My Heart’s Delight.wav
Длина предзазора 0:00:04.40
Пиковый уровень 94.1 %
Скорость извлечения 4.1 X
Качество трека 99.9 %
CRC теста 37921197
CRC копии 37921197
Точное извлечение (достоверность 1) [7ADD54C2] (AR v2)
Копирование... OK
Трек 6
Имя файла D:\_Temp\Alfie Boe\Franz Lehar - Love was a Dream\06. Alfie Boe - Love Was A Dream.wav
Длина предзазора 0:00:03.32
Пиковый уровень 94.5 %
Скорость извлечения 6.6 X
Качество трека 100.0 %
CRC теста AF1CDBF9
CRC копии AF1CDBF9
Точное извлечение (достоверность 1) [B0A3FCC0] (AR v2)
Копирование... OK
Трек 7
Имя файла D:\_Temp\Alfie Boe\Franz Lehar - Love was a Dream\07. Alfie Boe - Beautiful Italy.wav
Длина предзазора 0:00:03.68
Пиковый уровень 95.0 %
Скорость извлечения 6.2 X
Качество трека 100.0 %
CRC теста 41D566E4
CRC копии 41D566E4
Точное извлечение (достоверность 1) [DFD2871E] (AR v2)
Копирование... OK
Трек 8
Имя файла D:\_Temp\Alfie Boe\Franz Lehar - Love was a Dream\08. Alfie Boe - Patiently Smiling.wav
Длина предзазора 0:00:04.11
Пиковый уровень 58.6 %
Скорость извлечения 7.4 X
Качество трека 100.0 %
CRC теста 15EC2A9F
CRC копии 15EC2A9F
Точное извлечение (достоверность 1) [280D6961] (AR v2)
Копирование... OK
Трек 9
Имя файла D:\_Temp\Alfie Boe\Franz Lehar - Love was a Dream\09. Alfie Boe - Love Unspoken.wav
Длина предзазора 0:00:04.43
Пиковый уровень 85.1 %
Скорость извлечения 4.9 X
Качество трека 99.9 %
CRC теста D4495241
CRC копии D4495241
Точное извлечение (достоверность 1) [84FCD221] (AR v2)
Копирование... OK
Трек 10
Имя файла D:\_Temp\Alfie Boe\Franz Lehar - Love was a Dream\10. Alfie Boe - Friends, This Is The Life For Me!.wav
Длина предзазора 0:00:03.37
Пиковый уровень 94.7 %
Скорость извлечения 4.8 X
Качество трека 99.9 %
CRC теста 8D0AB594
CRC копии 8D0AB594
Точное извлечение (достоверность 1) [B9263DEA] (AR v2)
Копирование... OK
Трек 11
Имя файла D:\_Temp\Alfie Boe\Franz Lehar - Love was a Dream\11. Alfie Boe - Beneath The Window.wav
Длина предзазора 0:00:03.47
Пиковый уровень 93.6 %
Скорость извлечения 8.0 X
Качество трека 100.0 %
CRC теста 9EA7DF76
CRC копии 9EA7DF76
Точное извлечение (достоверность 1) [BB3D0F30] (AR v2)
Копирование... OK
Трек 12
Имя файла D:\_Temp\Alfie Boe\Franz Lehar - Love was a Dream\12. Alfie Boe - Farewell, My Love, Farewell.wav
Длина предзазора 0:00:03.51
Пиковый уровень 39.2 %
Скорость извлечения 8.2 X
Качество трека 100.0 %
CRC теста 65FE257C
CRC копии 65FE257C
Точное извлечение (достоверность 1) [E9F3BD58] (AR v2)
Копирование... OK
Все треки извлечены точно
Ошибок не произошло
Конец отчёта
---- CUETools DB Plugin V2.1.3
[CTDB TOCID: 2pKyb_dE8K21FFBtYuCGEa6fCyA-] disk not present in database, Submit result: 2pKyb_dE8K21FFBtYuCGEa6fCyA- has been uploaded
==== Контрольная сумма отчёта 44AF0C4B1A55C504260B1A49AEC382D36F1B28BC796E0638ADFF079714813F5D ====

Содержание индексной карты (.CUE)

REM DATE 2011
REM DISCID AC0A4D0C
REM COMMENT "ExactAudioCopy v1.0b3"
CATALOG 0028947645436
PERFORMER "Alfie Boe"
TITLE "Franz Lehar: Love was a Dream"
FILE "01. Alfie Boe - Just Believe It’s True.wav" WAVE
TRACK 01 AUDIO
TITLE "Just Believe It’s True"
PERFORMER "Alfie Boe"
ISRC GBASH0934601
INDEX 01 00:00:00
TRACK 02 AUDIO
TITLE "Vilia"
PERFORMER "Alfie Boe"
ISRC GBASH0934602
INDEX 00 02:55:64
FILE "02. Alfie Boe - Vilia.wav" WAVE
INDEX 01 00:00:00
TRACK 03 AUDIO
TITLE "Girls Were Made To Love And Kiss"
PERFORMER "Alfie Boe"
ISRC GBASH0934603
INDEX 00 05:01:13
FILE "03. Alfie Boe - Girls Were Made To Love And Kiss.wav" WAVE
INDEX 01 00:00:00
TRACK 04 AUDIO
TITLE "Oh Maiden, My Maiden"
PERFORMER "Alfie Boe"
ISRC GBASH0934604
INDEX 00 03:07:25
FILE "04. Alfie Boe - Oh Maiden, My Maiden.wav" WAVE
INDEX 01 00:00:00
TRACK 05 AUDIO
TITLE "You Are My Heart’s Delight"
PERFORMER "Alfie Boe"
ISRC GBASH0934605
INDEX 00 03:51:21
FILE "05. Alfie Boe - You Are My Heart’s Delight.wav" WAVE
INDEX 01 00:00:00
TRACK 06 AUDIO
TITLE "Love Was A Dream"
PERFORMER "Alfie Boe"
ISRC GBASH0934606
INDEX 00 03:31:04
FILE "06. Alfie Boe - Love Was A Dream.wav" WAVE
INDEX 01 00:00:00
TRACK 07 AUDIO
TITLE "Beautiful Italy"
PERFORMER "Alfie Boe"
ISRC GBASH0934607
INDEX 00 03:57:30
FILE "07. Alfie Boe - Beautiful Italy.wav" WAVE
INDEX 01 00:00:00
TRACK 08 AUDIO
TITLE "Patiently Smiling"
PERFORMER "Alfie Boe"
ISRC GBASH0934608
INDEX 00 02:05:34
FILE "08. Alfie Boe - Patiently Smiling.wav" WAVE
INDEX 01 00:00:00
TRACK 09 AUDIO
TITLE "Love Unspoken"
PERFORMER "Alfie Boe"
ISRC GBASH0934609
INDEX 00 04:40:57
FILE "09. Alfie Boe - Love Unspoken.wav" WAVE
INDEX 01 00:00:00
TRACK 10 AUDIO
TITLE "Friends, This Is The Life For Me!"
PERFORMER "Alfie Boe"
ISRC GBASH0934610
INDEX 00 03:21:02
FILE "10. Alfie Boe - Friends, This Is The Life For Me!.wav" WAVE
INDEX 01 00:00:00
TRACK 11 AUDIO
TITLE "Beneath The Window"
PERFORMER "Alfie Boe"
ISRC GBASH0934611
INDEX 00 03:04:68
FILE "11. Alfie Boe - Beneath The Window.wav" WAVE
INDEX 01 00:00:00
TRACK 12 AUDIO
TITLE "Farewell, My Love, Farewell"
PERFORMER "Alfie Boe"
ISRC GBASH0934612
INDEX 00 03:48:47
FILE "12. Alfie Boe - Farewell, My Love, Farewell.wav" WAVE
INDEX 01 00:00:00



Показать сообщения:    

Текущее время: 06-Дек 11:09

Часовой пояс: UTC + 3


Вы не можете начинать темы
Вы не можете отвечать на сообщения
Вы не можете редактировать свои сообщения
Вы не можете удалять свои сообщения
Вы не можете голосовать в опросах
Вы не можете прикреплять файлы к сообщениям
Вы не можете скачивать файлы