Шесть писем о бите (Алексей Ханютин) [1977, Документальный фильм о музыке, SATRip]


Статистика раздачи [Обновить пиров]
Размер:  165 MB   |    Зарегистрирован:  8 месяцев 24 дня   |    Скачан:  0 раз

Полного источника не было: Никогда

Личеров:  3  [  0 KB/s  ]   Подробная статистика пиров
 
   
 
 
 

[Цитировать]

Шесть писем о бите
Год выпуска: 1977
Страна: СССР
Жанр: Документальный фильм о музыке
Продолжительность: 00:21:32
Перевод: Не требуется
Русские субтитры: нет
Режиссер: Алексей Ханютин
Описание: Культовый фильм «Шесть писем о бите», 1977, режиссёр — Алексей Ханютин.
О творчестве рок-групп тех лет, в частности, "Рубиновой атаки", "Машины времени", "Високосного лета".
качество: SATRip
формат: AVI
видеокодек: XviD
аудиокодек: MP3
Видео: 640x480 (1.33:1), 25 fps, XviD MPEG-4 ~931 kbps avg, 0.12 bit/pixe
Аудио: 48 kHz, MPEG Layer 3, 2 ch, ~128.00 kbps avg

MediaInfo

General
Complete name : D:\SOFT\МАТРИЦЫ\Шесть писем о бите.avi
Format : AVI
Format/Info : Audio Video Interleave
File size : 165 MiB
Duration : 21mn 32s
Overall bit rate : 1 070 Kbps
Writing application : VirtualDubMod 1.5.10.2 (build 2540/release)
Writing library : VirtualDubMod build 2540/release
Video
ID : 0
Format : MPEG-4 Visual
Format profile : Advanced Simple@L5
Format settings, BVOP : 2
Format settings, QPel : No
Format settings, GMC : No warppoints
Format settings, Matrix : Custom
Muxing mode : Packed bitstream
Codec ID : XVID
Codec ID/Hint : XviD
Duration : 21mn 32s
Bit rate : 932 Kbps
Width : 640 pixels
Height : 480 pixels
Display aspect ratio : 4:3
Frame rate : 25.000 fps
Color space : YUV
Chroma subsampling : 4:2:0
Bit depth : 8 bits
Scan type : Progressive
Compression mode : Lossy
Bits/(Pixel*Frame) : 0.121
Stream size : 144 MiB (87%)
Writing library : XviD 58
Audio
ID : 1
Format : MPEG Audio
Format version : Version 1
Format profile : Layer 3
Codec ID : 55
Codec ID/Hint : MP3
Duration : 21mn 32s
Bit rate mode : Constant
Bit rate : 128 Kbps
Channel(s) : 2 channels
Sampling rate : 48.0 KHz
Compression mode : Lossy
Stream size : 19.7 MiB (12%)
Alignment : Aligned on interleaves
Interleave, duration : 40 ms (1.00 video frame)
Interleave, preload duration : 504 ms
Writing library : LAME3.96r
Encoding settings : -m s -V 4 -q 3 -lowpass 17.5 -b 128

Скриншоты

[teatrix.ru].t16837.torrent 
Торрент: Зарегистрирован [ 2016-03-17 00:12 ] · A67444B74E888B64F21DE082C43835F220FCDB25

Скачать .torrent

Скачать

13 KB

Статус: проверено
Скачан: 0 раз
Размер: 165 MB
terms.php



Быстрый ответ

Имя:

      
Для отправки сообщений необходимо включить JavaScript
Показать сообщения:    

Текущее время: 10-Дек 17:38

Часовой пояс: UTC + 3


Вы можете начинать темы
Вы можете отвечать на сообщения
Вы не можете редактировать свои сообщения
Вы не можете удалять свои сообщения
Вы не можете голосовать в опросах
Вы не можете прикреплять файлы к сообщениям
Вы можете скачивать файлы