У Германа сегодня 122 на 85 (Петр Шепотинник) [2003 - 2012, Документальный фильм, DVB] Алексей Герман


Статистика раздачи [Обновить пиров]
Размер:  830 MB   |    Зарегистрирован:  8 месяцев 24 дня   |    Скачан:  0 раз

Полного источника не было: Никогда

Личеров:  3  [  0 KB/s  ]   Подробная статистика пиров
 
   
 
 
 

[Цитировать]

У Германа сегодня 122 на 85
Год выпуска: 2003 - 2012
Страна: Россия
Жанр: Документальный фильм
Продолжительность: 00:38:32
Перевод: Не требуется
Русские субтитры: нет
Режиссер: Петр Шепотинник
Описание: О выдающемся российском кинорежиссере Алексее Германе. Его картины - "Проверка на дорогах", "Двадцать дней без войны", "Мой друг Иван Лапшин" - известны многим, не смотря на то, что имели нелегкую прокатную судьбу. Создатели фильма провели несколько дней в творческой лаборатории режиссера, который был погружен в съемки одного из самых ожидаемых фильмов будущего сезона - экранизации романа братьев Стругацких "Трудно быть Богом".
Доп. информация: Награды:
2003 Приз МКФ в Триесте (Петру Шепотиннику).
качество: DVB
формат: MPG
видеокодек: MPEG2
аудиокодек: MP2
Видео: MPEG2 768@704x576, 4:3, 25 fps, 2758 Кбит/сек, 0.272 bit/pixel
Аудио: MPEG-1 Layer 2, 192 kb/s, 48000Hz , 2 chanal

MediaInfo

Общее
Полное имя : F:\У Германа сегодня 122 на 85 (Алексей Герман).mpg
Формат : MPEG-PS
Размер файла : 830 Мбайт
Продолжительность : 38 м.
Режим общего битрейта : Переменный
Общий поток : 3010 Кбит/сек
Библиотека кодирования : (c) 1998-2009 Womble Multimedia, Inc. / MPEG Video Wizard (03/2009) / Jun 24 2009
Видео
Идентификатор : 224 (0xE0)
Формат : MPEG Video
Версия формата : Version 2
Профиль формата : Main@Main
Параметр BVOP формата : Да
Параметр матрицы формата : Выборочная
Параметр GOP формата : M=3, N=24
Продолжительность : 38 м.
Вид битрейта : Переменный
Битрейт : 2758 Кбит/сек
Максимальный битрейт : 15,0 Мбит/сек
Ширина : 704 пикселя
Высота : 576 пикселей
Соотношение сторон : 4:3
Частота кадров : 25,000 кадров/сек
Стандарт вещания : PAL
Цветовое пространство : YUV
Субдискретизация насыщенности : 4:2:0
Битовая глубина : 8 бит
Тип развёртки : Прогрессивная
Порядок развёртки : Верхнее поле первое
Метод сжатия : С потерями
Бит/(Пиксели*Кадры) : 0.272
Размер потока : 761 Мбайт (92%)
Выравнивание : (c) 1998-2009 Womble Multimedia, Inc. / MPEG Video Wizard (03/2009) / Jun 24 2009
Заголовок : (c) 1998-2009 Womble Multimedia, Inc. / MPEG Video Wizard (03/2009) / Jun 24 2009
Библиотека кодирования : (c) 1998-2009 Womble Multimedia, Inc. / MPEG Video Wizard (03/2009) / Jun 24 2009
Аудио
Идентификатор : 192 (0xC0)
Формат : MPEG Audio
Версия формата : Version 1
Профиль формата : Layer 2
Продолжительность : 38 м.
Вид битрейта : Постоянный
Битрейт : 192 Кбит/сек
Каналы : 2 канала
Частота : 48,0 КГц
Метод сжатия : С потерями
Размер потока : 52,9 Мбайт (6%)

Скриншоты

[teatrix.ru].t16840.torrent 
Торрент: Зарегистрирован [ 2016-03-17 00:11 ] · 16578F5CC043DF27C138792E4CA2E2D4CF462AB8

Скачать .torrent

Скачать

17 KB

Статус: проверено
Скачан: 0 раз
Размер: 830 MB
terms.php



Показать сообщения:    

Текущее время: 10-Дек 11:52

Часовой пояс: UTC + 3


Вы не можете начинать темы
Вы не можете отвечать на сообщения
Вы не можете редактировать свои сообщения
Вы не можете удалять свои сообщения
Вы не можете голосовать в опросах
Вы не можете прикреплять файлы к сообщениям
Вы можете скачивать файлы