Майкл Джексон. Запретная любовь (Игорь Максимчук) [2011, Документальный, DVB]


Статистика раздачи [Обновить пиров]
Размер:  1.03 GB   |    Зарегистрирован:  8 месяцев 18 дней   |    Скачан:  0 раз

Полного источника не было: Никогда

Личеров:  3  [  0 KB/s  ]   Подробная статистика пиров
 
   
 
 
 

[Цитировать]

Майкл Джексон. Запретная любовь
Год выпуска: 2011
Производство: ТВ Центр
Жанр: Документальный
Продолжительность: 00:38:55
Перевод: Не требуется
Русские субтитры: нет
Автор и ведущий: Леонид Млечин
Режиссер: Игорь Максимчук
Описание:
Всемирная слава погубила личную жизнь Майкла Джексона, человека, который вошёл в Книгу рекордов Гиннесса как самый популярный и успешный артист всех времён...
Страдающий от одиночества ребёнок, повзрослев, превратился в одинокую звезду. У него было две жены и трое детей, но его браки люди считали фиктивными, а детей – чужими. Его десять лет пытались посадить на скамью подсудимых и, в конце концов, судили за растление несовершеннолетних. Спасаясь от боли – физической и моральной, он глотал болеутоляющие. Эти препараты его и убили...

качество: DVB
формат: MPG
видеокодек: MPEG2
аудиокодек: MP2
Видео: MPEG2 Video 720x576 (4:3) 25.00fps 3550kbps Bits/(Pixel*Frame) 0.342
Аудио: MPEG Audio 48000Hz 2ch 192Kbps

MediaInfo

General
Complete name : D:\Torrent\Майкл Джексон. Запретная любовь.mpg
Format : MPEG-PS
File size : 1.03 GiB
Duration : 38mn 55s
Overall bit rate : 3 790 Kbps
Writing library : (c) 1998-2012 Womble Multimedia, Inc. / MPEG Video Wizard DVD 5.0.1.100 (03/2011) / Sep 7 2012
Video
ID : 224 (0xE0)
Format : MPEG Video
Format version : Version 2
Format profile : Main@Main
Format settings, BVOP : Yes
Format settings, Matrix : Default
Format settings, GOP : M=3, N=24
Duration : 38mn 55s
Bit rate mode : Constant
Bit rate : 3 550 Kbps
Width : 720 pixels
Height : 576 pixels
Display aspect ratio : 4:3
Frame rate : 25.000 fps
Standard : PAL
Color space : YUV
Chroma subsampling : 4:2:0
Bit depth : 8 bits
Scan type : Interlaced
Scan order : Top Field First
Bits/(Pixel*Frame) : 0.342
Stream size : 981 MiB (93%)
Writing library : (c) 1998-2012 Womble Multimedia, Inc. / MPEG Video Wizard DVD 5.0.1.100 (03/2011) / Sep 7 2012
Audio
ID : 192 (0xC0)
Format : MPEG Audio
Format version : Version 1
Format profile : Layer 2
Duration : 38mn 55s
Bit rate mode : Constant
Bit rate : 192 Kbps
Channel(s) : 2 channels
Sampling rate : 48.0 KHz
Video delay : -80ms
Stream size : 53.4 MiB (5%)

Скриншоты

[teatrix.ru].t16841.torrent 
Торрент: Зарегистрирован [ 2016-03-17 00:11 ] · E1F5C927F0D7F4540548B834F6B9A8071F28BDE0

Скачать .torrent

Скачать

11 KB

Статус: проверено
Скачан: 0 раз
Размер: 1.03 GB
terms.php



Быстрый ответ

Имя:

      
Для отправки сообщений необходимо включить JavaScript
Показать сообщения:    

Текущее время: 04-Дек 09:08

Часовой пояс: UTC + 3


Вы можете начинать темы
Вы можете отвечать на сообщения
Вы не можете редактировать свои сообщения
Вы не можете удалять свои сообщения
Вы не можете голосовать в опросах
Вы не можете прикреплять файлы к сообщениям
Вы можете скачивать файлы