Романтические истории Парижа / Любовь в Париже / Paris mes amours / Stars & Love Stories – Paris In Love (Валери Лаваль / Valerie Lavalle / Valérie Lavalle) [2009, документальный, музыкальный, DVB] DVO (Видеопродакшн)


Статистика раздачи [Обновить пиров]
Размер:  1.02 GB   |    Зарегистрирован:  8 месяцев 25 дней   |    Скачан:  0 раз

Полного источника не было: Никогда

Личеров:  3  [  0 KB/s  ]   Подробная статистика пиров
 
   
 
 
 

[Цитировать]

Романтические истории Парижа / Любовь в Париже
Paris mes amours / Stars & Love Stories – Paris In Love- Год выпуска: 2009
Страна: Франция
Жанр: документальный, музыкальный
Продолжительность: 00:51:33
Перевод: Профессиональный (двухголосый) (компания "Видеопродакшн")
Русские субтитры: нет
Режиссер: Валери Лаваль / Valérie Lavalle
Описание: Когда мы говорим "песни", подразумеваем - "любовь", когда говорим "любовь", подразумеваем - "песни". Музыка и сильное чувство связаны неразрывно... Самые романтичные и трагичные любовные истории Парижа в обрамлении лирических мелодий:
1. Ален Делон и Роми Шнайдер
2. Эдит Пиаф и Марсель Сердан
3. Арлетти и Ханс Сёринг
4. Джонни Холлидей и Сильви Вартан
5. Жан Маре и Жан Кокто
6. Серж Генсбур и Джейн Биркин
Доп. информация: Собственная запись со спутника (канал "Кто есть кто"). В отличие от имеющегося на трекере DVB с DVO (перевод компании "Видеофильм" по заказу ООО "Медиапроект") в данном релизе другой перевод DVO (компания "Видеопродакшн") с переводом звучащих в фильме песен.
Сэмпл: Видеопродакшн сравнение с предыдущим релизом Видеофильм
Качество: DVB
Формат: MPEG-PS
Видео кодек: MPEG2
Аудио кодек: MP2
Видео: MPEG Video 2, 720x576@768x576 (4:3), 25 fps, ~2587 kbps avg, 0.250 bit/pixel
Аудио: 48 kHz, MPEG Audio 2, 2 ch, ~192.00 kbps avg

MediaInfo

Полное имя                               : H:\My Torrents\[apreder]Paris_mes_amours(2009)DVB.mpg
Формат : MPEG-PS
Размер файла : 1,02 Гбайт
Продолжительность : 51 м.
Режим общего битрейта : Переменный
Общий поток : 2836 Кбит/сек
Видео
Идентификатор : 224 (0xE0)
Формат : MPEG Video
Версия формата : Version 2
Профиль формата : Main@Main
Параметр BVOP формата : Да
Параметр матрицы формата : Выборочная
Параметр GOP формата : M=3, N=36
Продолжительность : 51 м.
Вид битрейта : Переменный
Битрейт : 2587 Кбит/сек
Ширина : 720 пикселей
Высота : 576 пикселей
Соотношение сторон : 4:3
Частота кадров : 25,000 кадров/сек
Стандарт вещания : PAL
Цветовое пространство : YUV
Субдискретизация насыщенности : 4:2:0
Битовая глубина : 8 бит
Тип развёртки : Чересстрочная
Порядок развёртки : Верхнее поле первое
Метод сжатия : С потерями
Бит/(Пиксели*Кадры) : 0.250
Размер потока : 954 Мбайт (91%)
Аудио
Идентификатор : 192 (0xC0)
Формат : MPEG Audio
Версия формата : Version 1
Профиль формата : Layer 2
Продолжительность : 51 м.
Вид битрейта : Постоянный
Битрейт : 192 Кбит/сек
Каналы : 2 канала
Частота : 48,0 КГц
Метод сжатия : С потерями
Размер потока : 70,8 Мбайт (7%)

Скриншоты


Скриншоты анаморфированные


-577/559√
[teatrix.ru].t16842.torrent 
Торрент: Зарегистрирован [ 2016-03-17 00:11 ] · 0B49BC37789C742BE092743058AB12B2CB84E7AC

Скачать .torrent

Скачать

11 KB

Статус: проверено
Скачан: 0 раз
Размер: 1.02 GB
terms.php



Показать сообщения:    

Текущее время: 11-Дек 05:21

Часовой пояс: UTC + 3


Вы не можете начинать темы
Вы не можете отвечать на сообщения
Вы не можете редактировать свои сообщения
Вы не можете удалять свои сообщения
Вы не можете голосовать в опросах
Вы не можете прикреплять файлы к сообщениям
Вы можете скачивать файлы