Музыкальный иллюминатор. Culture Club (Алексей Титов) [2011, Документальный, DVB]


Статистика раздачи [Обновить пиров]
Размер:  695 MB   |    Зарегистрирован:  8 месяцев 20 дней   |    Скачан:  0 раз

Полного источника не было: Никогда

Личеров:  3  [  0 KB/s  ]   Подробная статистика пиров
 
   
 
 
 

[Цитировать]

Музыкальный иллюминатор. Culture Club
Год выпуска: 2011
Производство: ООО «Альтаир»
Жанр: Документальный
Продолжительность: 00:25:58
Перевод: Не требуется
Русские субтитры: нет
Автор и ведущий: Александр Лоевский
Режиссер: Алексей Титов
Описание: Толерантность – одно из ключевых понятий современного мирового лексикона. Смысл этого слова прост и очевиден, однако притворять толерантность в жизнь, дело нелегкое. Некоторые деятели искусств, своим примером показывают нам, как это делать. Именно таковыми являются представители группы Culture Club. Ну а как же иначе, ведь в составе этого квартета собрались европеец, афроамериканец, еврей и наконец, ирландский трансвестит…

качество: DVB
формат: MPG
видеокодек: MPEG2
аудиокодек: MP2
Видео: MPEG2 Video 720x576 (4:3) 25.00fp Bit rate 3500Kbps Constant Bits/(Pixel*Frame) 0.338
Аудио: MP2 48000Hz 2ch 192kbps

MediaInfo

General
Complete name : F:\torrent\Музыкальный иллюминатор. Culture Club.mpg
Format : MPEG-PS
File size : 695 MiB
Duration : 25mn 58s
Overall bit rate : 3 739 Kbps
Writing library : (c) 1998-2011 Womble Multimedia, Inc. / MPEG Video Wizard DVD 5.0.1.100 (03/2011) / Dec 15 2011
Video
ID : 224 (0xE0)
Format : MPEG Video
Format version : Version 2
Format profile : Main@Main
Format settings, BVOP : Yes
Format settings, Matrix : Default
Format settings, GOP : M=3, N=24
Duration : 25mn 58s
Bit rate mode : Constant
Bit rate : 3 500 Kbps
Width : 720 pixels
Height : 576 pixels
Display aspect ratio : 4:3
Frame rate : 25.000 fps
Standard : PAL
Color space : YUV
Chroma subsampling : 4:2:0
Bit depth : 8 bits
Scan type : Interlaced
Scan order : Top Field First
Bits/(Pixel*Frame) : 0.338
Stream size : 645 MiB (93%)
Writing library : (c) 1998-2011 Womble Multimedia, Inc. / MPEG Video Wizard DVD 5.0.1.100 (03/2011) / Dec 15 2011
Audio
ID : 192 (0xC0)
Format : MPEG Audio
Format version : Version 1
Format profile : Layer 2
Duration : 25mn 58s
Bit rate mode : Constant
Bit rate : 192 Kbps
Channel(s) : 2 channels
Sampling rate : 48.0 KHz
Video delay : -80ms
Stream size : 35.7 MiB (5%)

Скриншоты

[teatrix.ru].t16848.torrent 
Торрент: Зарегистрирован [ 2016-03-17 00:12 ] · 38E0264689C33D41C9786FE41BCD22BD8DEB91E2

Скачать .torrent

Скачать

14 KB

Статус: проверено
Скачан: 0 раз
Размер: 695 MB
terms.php



Быстрый ответ

Имя:

      
Для отправки сообщений необходимо включить JavaScript
Показать сообщения:    

Текущее время: 06-Дек 13:16

Часовой пояс: UTC + 3


Вы можете начинать темы
Вы можете отвечать на сообщения
Вы не можете редактировать свои сообщения
Вы не можете удалять свои сообщения
Вы не можете голосовать в опросах
Вы не можете прикреплять файлы к сообщениям
Вы можете скачивать файлы