ABBA - Музыка в обзоре (1973-1982) / ABBA - Music In Review (1973-1982) (Studio: Classic Rock Legends/Ka) [2005, Documentary / документальный, DVDRip] VO ****


Статистика раздачи [Обновить пиров]
Размер:  1.99 GB   |    Зарегистрирован:  8 месяцев 23 дня   |    Скачан:  0 раз

Полного источника не было: Никогда

Личеров:  3  [  0 KB/s  ]   Подробная статистика пиров
 
   
 
 
 

[Цитировать]

ABBA - Музыка в обзоре (1973-1982) / ABBA - Music In Review (1973-1982)
Год выпуска: 2005
Страна: EU
Жанр: Documentary / документальный
Продолжительность: 01:09:19 + 01:01:37
Перевод: Любительский (одноголосый закадровый) ****
Русские субтитры: нет
Studio: Classic Rock Legends/Ka
Описание: В двух представленных здесь фильмах несколько известных музыкальных критиков и сессионных музыкантов, пересматривают каждый альбом шведской поп-группы ABBA с критическим обзором самых ярких песен в ее творчестве, начиная с 1973 и по 1982 год.
Доп. информация: В 2005 году вышло 2-х дисковое DVD издание (Disc:1 - 1973-1976; Disc:2 - 1977-1982).
качество: DVDRip
формат: AVI
видеокодек: DivX
аудиокодек: MP3
Видео: №1 DivX 5 720x480 29.97fps Overall bit rate:1 703 Kbps / №2 DivX 5 720x576 25fps Overall bit rate:2 698 Kbps
Аудио: MP3 48000Hz stereo 192kbps / MP3 44100Hz stereo 192kbps

MediaInfo

General
Complete name : E:\диск - 01\ABBA-Music In Review - (1973-1976).avi
Format : AVI
Format/Info : Audio Video Interleave
File size : 845 MiB
Duration : 1h 9mn
Overall bit rate : 1 703 Kbps
Writing application : VirtualDubMod 1.5.10.2 (build 2540/release)
Writing library : VirtualDubMod build 2540/release
Video
ID : 0
Format : MPEG-4 Visual
Format profile : Simple@L1
Format settings, BVOP : No
Format settings, QPel : No
Format settings, GMC : No warppoints
Format settings, Matrix : Default (H.263)
Codec ID : DX50
Codec ID/Hint : DivX 5
Duration : 1h 9mn
Bit rate : 1 500 Kbps
Width : 720 pixels
Height : 480 pixels
Display aspect ratio : 3:2
Frame rate : 29.970 fps
Standard : NTSC
Color space : YUV
Chroma subsampling : 4:2:0
Bit depth : 8 bits
Scan type : Progressive
Compression mode : Lossy
Bits/(Pixel*Frame) : 0.145
Stream size : 744 MiB (88%)
Writing library : Lavc51.40.4
Audio
ID : 1
Format : MPEG Audio
Format version : Version 1
Format profile : Layer 3
Mode : Joint stereo
Mode extension : MS Stereo
Codec ID : 55
Codec ID/Hint : MP3
Duration : 1h 9mn
Bit rate mode : Constant
Bit rate : 192 Kbps
Channel(s) : 2 channels
Sampling rate : 48.0 KHz
Compression mode : Lossy
Stream size : 95.2 MiB (11%)
Alignment : Aligned on interleaves
Interleave, duration : 33 ms (1.00 video frame)
Interleave, preload duration : 504 ms
Writing library : LAME3.97
Complete name : E:\диск - 02\ABBA-Music In Review - (1977-1982).avi
Format : AVI
Format/Info : Audio Video Interleave
File size : 1.16 GiB
Duration : 1h 1mn
Overall bit rate : 2 698 Kbps
Writing application : VirtualDubMod 1.5.10.2 (build 2540/release)
Writing library : VirtualDubMod build 2540/release
Video
ID : 0
Format : MPEG-4 Visual
Format profile : Simple@L1
Format settings, BVOP : No
Format settings, QPel : No
Format settings, GMC : No warppoints
Format settings, Matrix : Default (H.263)
Codec ID : DX50
Codec ID/Hint : DivX 5
Duration : 1h 1mn
Bit rate : 2 496 Kbps
Width : 720 pixels
Height : 576 pixels
Display aspect ratio : 5:4
Frame rate : 25.000 fps
Standard : PAL
Color space : YUV
Chroma subsampling : 4:2:0
Bit depth : 8 bits
Scan type : Progressive
Compression mode : Lossy
Bits/(Pixel*Frame) : 0.241
Stream size : 1.07 GiB (93%)
Writing library : Lavc51.40.4
Audio
ID : 1
Format : MPEG Audio
Format version : Version 1
Format profile : Layer 3
Codec ID : 55
Codec ID/Hint : MP3
Duration : 1h 1mn
Bit rate mode : Constant
Bit rate : 192 Kbps
Channel(s) : 2 channels
Sampling rate : 44.1 KHz
Compression mode : Lossy
Stream size : 84.6 MiB (7%)
Alignment : Split accross interleaves
Interleave, duration : 40 ms (1.00 video frame)
Interleave, preload duration : 500 ms

Скриншоты

Семпл

первый фильм - http://yadi.sk/d/Dri0MmRN2DWG9
[teatrix.ru].t16854.torrent 
Торрент: Зарегистрирован [ 2016-03-17 00:12 ] · 56CE4E11699B9CDB2381237B0A85087B076550C2

Скачать .torrent

Скачать

20 KB

Статус: проверено
Скачан: 0 раз
Размер: 1.99 GB
terms.php



Быстрый ответ

Имя:

      
Для отправки сообщений необходимо включить JavaScript
Показать сообщения:    

Текущее время: 09-Дек 14:42

Часовой пояс: UTC + 3


Вы можете начинать темы
Вы можете отвечать на сообщения
Вы не можете редактировать свои сообщения
Вы не можете удалять свои сообщения
Вы не можете голосовать в опросах
Вы не можете прикреплять файлы к сообщениям
Вы можете скачивать файлы