Леонид Гайдай. Великий пересмешник (Эфир от 02.02.2013) (Игорь Холодков) [2013 г., Документальный, DVB]


Статистика раздачи [Обновить пиров]
Размер:  1.41 GB   |    Зарегистрирован:  8 месяцев 20 дней   |    Скачан:  0 раз

Полного источника не было: Никогда

Личеров:  3  [  0 KB/s  ]   Подробная статистика пиров
 
   
 
 
 

[Цитировать]

Леонид Гайдай. Великий пересмешник (Эфир от 02.02.2013)
Год выпуска: 2013
Страна: Россия
Жанр: Документальный
Продолжительность: 00:45:06
Режиссер: Игорь Холодков
Описание: Когда человек смеется, он не боится и не страдает. Это изречение древних философов знаменитому советскому комедиографу Леониду Гайдаю наверняка было близко по духу.
Потому что всю свою жизнь он стремился сделать так, чтобы как можно больше людей не боялись и не страдали, а смеялись. Причем, не одно поколение.
Комедии Леонида Гайдая "Бриллиантовая рука", "Кавказская пленница", "Иван Васильевич меняет профессию". "Операция "Ы" и другие приключения Шурика", "Самогонщики" и другие, спустя много лет, остаются суперпопулярными у зрителей. Цитаты из его фильмов живы по сей день.
В повседневной жизни Гайдай был малоразговорчивым человеком. По-настоящему он раскрывался только на съемочной площадке. Авторы фильма попытались рассказать, каким был Гайдай, как проходили съемки любимых фильмов, какие истории случались во время съемок.
Съемочная группа побывала с актрисой Натальей Варлей в Алуште, где проходили съемки "Кавказской пленницы". Актриса вспомнила смешные и грустные моменты сьемок. А с актрисой Натальей Селезнёвой авторы отправились на "Мосфильм", где до сих пор хранятся костюмы и реквизит всех фильмов Гайдая. Также зрители увидят уникальные съемки из Иерусалима – последние съемки самого режиссёра, который обычно оставался за кадром.
В фильме приняли участие: Нина Гребешкова, вдова Л.Гайдая, Наталья Варлей, Наталья Селезнёва, Дмитрий Харатьян, Владимир Этуш, Светлана Светличная, Максим Никулин, Александр Зацепин, Леонид Каневский, Игорь Ясулович, Александр Лойе, Карен Шахназаров.
Качество видео: DVB
Формат видео: MPEG-PS
Видео: MPEG-2 Video; 720x576@1024x576 (16:9), анаморф, 25 fps, 4193 kbps
Аудио: MPEG Audio (Version 1) Layer 2, 2 сh, 48 KHz, 192 kbps
Релиз спутникового канала: 1 TVRUS Europe

MediaInfo

General
Complete name : O:\Леонид Гайдай. Великий пересмешник. (Эфир от 02.02.2013) (2013)_DVB by SLuMeP.mpg
Format : MPEG-PS
File size : 1.41 GiB
Duration : 45mn 6s
Overall bit rate : 4 468 Kbps
Writing library : (c) 1998-2010 Womble Multimedia, Inc. / MPEG Video Wizard DVD 5.0.0.114 (01/2010) / Apr 20 2010
Video
ID : 224 (0xE0)
Format : MPEG Video
Format version : Version 2
Format profile : Main@Main
Format settings, BVOP : Yes
Format settings, Matrix : Default
Format settings, GOP : M=3, N=12
Duration : 45mn 6s
Bit rate mode : Variable
Bit rate : 4 187 Kbps
Nominal bit rate : 15.0 Mbps
Width : 720 pixels
Height : 576 pixels
Display aspect ratio : 16:9
Frame rate : 25.000 fps
Standard : PAL
Color space : YUV
Chroma subsampling : 4:2:0
Bit depth : 8 bits
Scan type : Interlaced
Scan order : Top Field First
Bits/(Pixel*Frame) : 0.404
Stream size : 1.32 GiB (94%)
Writing library : (c) 1998-2010 Womble Multimedia, Inc. / MPEG Video Wizard DVD 5.0.0.114 (01/2010) / Apr 20 2010
Audio
ID : 192 (0xC0)
Format : MPEG Audio
Format version : Version 1
Format profile : Layer 2
Duration : 45mn 6s
Bit rate mode : Constant
Bit rate : 192 Kbps
Channel(s) : 2 channels
Sampling rate : 48.0 KHz
Video delay : -40ms
Stream size : 62.0 MiB (4%)

Скриншоты


[teatrix.ru].t16862.torrent 
Торрент: Зарегистрирован [ 2016-03-17 00:13 ] · 9578F46707DB848F907C0F30E4A9A1E1F4935A64

Скачать .torrent

Скачать

15 KB

Статус: проверено
Скачан: 0 раз
Размер: 1.41 GB
terms.php



Показать сообщения:    

Текущее время: 06-Дек 15:12

Часовой пояс: UTC + 3


Вы не можете начинать темы
Вы не можете отвечать на сообщения
Вы не можете редактировать свои сообщения
Вы не можете удалять свои сообщения
Вы не можете голосовать в опросах
Вы не можете прикреплять файлы к сообщениям
Вы можете скачивать файлы