(Classical Crossover) Andrea Bocelli - Passione {US Deluxe Edition + Italian Edition} 2CD - 2013, FLAC (image+.cue), lossless


 

[Цитировать]

Andrea BocelliPassione {US Deluxe Edition + Italian Edition}- Жанр: Classical CrossoverСтрана-производитель диска: Italia/USA Год издания диска: 2013 Издатель (лейбл): Sugar/Vevre Аудиокодек: FLAC Тип рипа: image+.cue Битрейт аудио: Lossless Продолжительность: 02:17:03 Источник: CD Наличие сканов :-

Об исполнителе

Андреа Бочелли вырос на ферме в небольшой деревне Ладжатико. В 6 лет начал учиться играть на фортепиано, а позже освоил флейту и саксофон. Страдая недостаточным зрением, он стал полностью слепым в 12 лет после несчастного случая. Несмотря на очевидные музыкальные таланты, Бочелли не рассматривал музыку как свою дальнейшую карьеру, пока не закончил юридический факультет университета в Пизе, и не получил звание доктора. Только тогда Бочелли стал серьезно заниматься своим голосом со знаменитым тенором Франко Горелли, попутно зарабатывая деньги на уроки игрой на фортепиано в различных группах.
Первый прорыв Бочелли как певца произошел в 1992 году, когда Дзуккеро (Адельмо Форначиари) искал тенора, чтобы записать демо с песней "Miserere", которую он написал вместе с Боно из U2. Успешно пройдя отбор, Бочелли записал композицию в дуэте с Luciano Pavarotti. После всемирного тура с Форначиари в 1993 году, Бочелли выступил на благотворительном "Pavarotti International Festival", который прошел в Модене в сентября 1994 года. Кроме Luciano Pavarotti, Бочелли также пел с Bryan Adams, Андреасом Волленвейдером и Нэнси Густавсон. В ноябре 1995 года Бочелли побывал в Нидерландах, Бельгии, Германии, Испании и Франции с постановкой "Night Of Proms", в которой также участвовали Bryan Ferry, Al Jarreau, Roger Hodgson из Supertramp и Джон Майс.
Первые два альбома Бочелли ‘’Andrea Bocelli’’ (1994) и Bocelli (1996) представили только его оперное пение, а третий диск Viaggio Italiano известные оперные арии и традиционные неаполитанские песни. Хотя CD и был выпущен только в Италии, он разошелся там тиражом более чем 300 тысяч копий. На четвертом альбоме Romanza (1997) был представлен уже поп-материал, включая хит "Time To Say Goodbye", записанный в дуэте с Sarah Brightman, который имел большой успех. После этого Бочелли продолжил разрабатывать прибыльное поп-направление, выпустив в 1999 году пятый альбом Sogno, который включал дуэт с Селин Дион "The Prayer". Выпущенная на сингле эта песня разошлась только в США 10-миллионным тиражом и за ее исполнение Бочелли получил Golden Globe Awards, и был номинирован на Grammy в категории "Best New Artist".
-

2013 - PASSIONE {Italian Edition}

Год выпуска диска : 29 января 2013
Производитель диска : Италия
Аудио кодек : FLAC
Тип рипа : image+.cue (Test & Copy)
Битрейт аудио : lossless
Продолжительность : 68:02
Лейбл : Sugar
Каталожный номер : 8033120983474
Источник (релизер): Рип оригинального диска из личной коллекции
Сканы: прилагаются


01. Perfidia
02. Champagne
03. Quizás, quizás, quizás - duet with Jennifer Lopez
04. Era già tutto previsto
05. Tristeza
06. La vie en rose - duet with Edith Piaf
07. Corcovado - Quiet nights of quiet stars - duet with Nelly Furtado
08. Sarà Settembre (September Morn)
09. Love in Portofino
10. Love Me Tender
11. Garota de Ipanema
12. Strangers in the Night
13. Malafemmena
14. When I Fall in Love - featuring Chris Botti
15. Senza fine
16. Il nostro incontro - featuring Chris Botti
17. A mano a mano
18. Smile - featuring Chris Botti-Дополнительная информация: Итальянское издание альбома, включающее в себя кавер Фрэнка Синатры "Strangers in the Night" на английском языке и песню Чарли Чаплина "Smile" на итальянском языке. В отличии от стандартного международного 14-трекового издания, на этом отсутствуют песни "Anema e core" и "Roma nun fa la stupida stasera" и присутствуют все 4 трека из Делюксового издания.-

Лог создания рипа

Exact Audio Copy V1.0 beta 3 from 29. August 2011
Отчёт EAC об извлечении, выполненном 4. февраля 2013, 16:21
Andrea Bocelli / Passione
Дисковод: TSSTcorpCDDVDW TS-L633J Adapter: 0 ID: 1
Режим чтения : Достоверность
Использование точного потока : Да
Отключение кэша аудио : Да
Использование указателей C2 : Нет
Коррекция смещения при чтении : 6
Способность читать области Lead-in и Lead-out : Нет
Заполнение пропущенных сэмплов тишиной : Да
Удаление блоков с тишиной в начале и конце : Нет
При вычислениях CRC использовались нулевые сэмплы : Да
Интерфейс : Встроенный Win32-интерфейс для Win NT/2000
Выходной формат : Пользовательский кодировщик
Выбранный битрейт : 1024 kBit/s
Качество : Высокий
Добавление ID3-тега : Нет
Утилита сжатия : C:\Program Files (x86)\Exact Audio Copy\FLAC\FLAC.EXE
Дополнительные параметры : -8 -V -T "ARTIST=%artist%" -T "TITLE=%title%" -T "ALBUM=%albumtitle%" -T "DATE=%year%" -T "TRACKNUMBER=%tracknr%" -T "GENRE=%genre%" -T "COMMENT=%comment%" -T "BAND=%albuminterpret%" -T "ALBUMARTIST=%albuminterpret%" -T "COMPOSER=%composer%" %haslyrics%--tag-from-file=LYRICS="%lyricsfile%"%haslyrics% -T "DISCNUMBER=%cdnumber%" -T "TOTALDISCS=%totalcds%" -T "TOTALTRACKS=%numtracks%" %hascover%--picture="%coverfile%"%hascover% %source% -o %dest%
TOC извлечённого CD
Трек | Старт | Длительность | Начальный сектор | Конечный сектор
---------------------------------------------------------------------
1 | 0:00.00 | 4:07.32 | 0 | 18556
2 | 4:07.32 | 3:49.01 | 18557 | 35732
3 | 7:56.33 | 3:16.40 | 35733 | 50472
4 | 11:12.73 | 3:42.54 | 50473 | 67176
5 | 14:55.52 | 3:23.07 | 67177 | 82408
6 | 18:18.59 | 3:08.34 | 82409 | 96542
7 | 21:27.18 | 3:36.51 | 96543 | 112793
8 | 25:03.69 | 3:41.07 | 112794 | 129375
9 | 28:45.01 | 3:00.00 | 129376 | 142875
10 | 31:45.01 | 3:52.73 | 142876 | 160348
11 | 35:37.74 | 3:37.32 | 160349 | 176655
12 | 39:15.31 | 3:06.63 | 176656 | 190668
13 | 42:22.19 | 4:17.26 | 190669 | 209969
14 | 46:39.45 | 4:43.32 | 209970 | 231226
15 | 51:23.02 | 3:18.15 | 231227 | 246091
16 | 54:41.17 | 4:32.61 | 246092 | 266552
17 | 59:14.03 | 4:20.04 | 266553 | 286056
18 | 63:34.07 | 4:28.51 | 286057 | 306207
Характеристики диапазона извлечения и сообщения об ошибках
Выбранный диапазон
Имя файла D:\Andrea Bocelli - Passione ( Italian Edition) 2013\Andrea Bocelli - Passione.wav
Пиковый уровень 98.8 %
Скорость извлечения 3.1 X
Качество диапазона 100.0 %
CRC теста D2C1CFEE
CRC копии D2C1CFEE
Копирование... OK
Ошибок не произошло
AccurateRip: сводка
Трек 1 отсутствует в базе данных
Трек 2 отсутствует в базе данных
Трек 3 отсутствует в базе данных
Трек 4 отсутствует в базе данных
Трек 5 отсутствует в базе данных
Трек 6 отсутствует в базе данных
Трек 7 отсутствует в базе данных
Трек 8 отсутствует в базе данных
Трек 9 отсутствует в базе данных
Трек 10 отсутствует в базе данных
Трек 11 отсутствует в базе данных
Трек 12 отсутствует в базе данных
Трек 13 отсутствует в базе данных
Трек 14 отсутствует в базе данных
Трек 15 отсутствует в базе данных
Трек 16 отсутствует в базе данных
Трек 17 отсутствует в базе данных
Трек 18 отсутствует в базе данных
Ни одного трека нет в базе AccurateRip
Конец отчёта
==== Контрольная сумма отчёта AB6C92C0AD3D8CF80054A2E4263137289EE1D763C1DDC80818E9EC1C453CFD38 ====

Содержание индексной карты (.CUE)

REM GENRE Italia
REM DATE 2013
REM DISCID 100FF212
REM COMMENT "ExactAudioCopy v1.0b3"
PERFORMER "Andrea Bocelli"
TITLE "Passione"
FILE "Andrea Bocelli - Passione.flac" WAVE
TRACK 01 AUDIO
TITLE "Perfidia"
PERFORMER "Andrea Bocelli"
INDEX 01 00:00:00
TRACK 02 AUDIO
TITLE "Champagne"
PERFORMER "Andrea Bocelli"
INDEX 00 04:06:38
INDEX 01 04:07:32
TRACK 03 AUDIO
TITLE "Quizas, quizas, quizas"
PERFORMER "Andrea Bocelli"
INDEX 00 07:55:57
INDEX 01 07:56:33
TRACK 04 AUDIO
TITLE "Era gia tutto previsto"
PERFORMER "Andrea Bocelli"
INDEX 01 11:12:73
TRACK 05 AUDIO
TITLE "Tristeza"
PERFORMER "Andrea Bocelli"
INDEX 00 14:54:06
INDEX 01 14:55:52
TRACK 06 AUDIO
TITLE "La vie en rose"
PERFORMER "Andrea Bocelli"
INDEX 00 18:18:46
INDEX 01 18:18:59
TRACK 07 AUDIO
TITLE "Corcovado - Quiet nights of quiet stars"
PERFORMER "Andrea Bocelli"
INDEX 00 21:25:38
INDEX 01 21:27:18
TRACK 08 AUDIO
TITLE "Sara settembre"
PERFORMER "Andrea Bocelli"
INDEX 00 25:02:03
INDEX 01 25:03:69
TRACK 09 AUDIO
TITLE "Love in Portofino"
PERFORMER "Andrea Bocelli"
INDEX 00 28:44:22
INDEX 01 28:45:01
TRACK 10 AUDIO
TITLE "Love me tender"
PERFORMER "Andrea Bocelli"
INDEX 00 31:44:51
INDEX 01 31:45:01
TRACK 11 AUDIO
TITLE "Garota de Ipanema"
PERFORMER "Andrea Bocelli"
INDEX 00 35:37:08
INDEX 01 35:37:74
TRACK 12 AUDIO
TITLE "Strangers in the night"
PERFORMER "Andrea Bocelli"
INDEX 00 39:14:12
INDEX 01 39:15:31
TRACK 13 AUDIO
TITLE "Malafemmena"
PERFORMER "Andrea Bocelli"
INDEX 00 42:20:60
INDEX 01 42:22:19
TRACK 14 AUDIO
TITLE "When I fall in love (feat. Chris Botti)"
PERFORMER "Andrea Bocelli"
INDEX 00 46:39:04
INDEX 01 46:39:45
TRACK 15 AUDIO
TITLE "Senza fine"
PERFORMER "Andrea Bocelli"
INDEX 00 51:21:00
INDEX 01 51:23:02
TRACK 16 AUDIO
TITLE "Il nostro incontro (feat. Chris Botti)"
PERFORMER "Andrea Bocelli"
INDEX 00 54:39:67
INDEX 01 54:41:17
TRACK 17 AUDIO
TITLE "A mano a mano"
PERFORMER "Andrea Bocelli"
INDEX 00 59:13:17
INDEX 01 59:14:03
TRACK 18 AUDIO
TITLE "Smile (feat. Chris Botti)"
PERFORMER "Andrea Bocelli"
INDEX 00 63:33:21
INDEX 01 63:34:07

Об альбоме (сборнике)

Новый альбом прославленного итальянского тенора, в который вошли дуэты с Дженнифер Лопез и Нелли Фуртадо. Новая студийная работа Андреа Бочелли отвечает самым высоким стандартам: продюсером "Passione" стал обладатель 16-ти премий Грэмми, президент Verve Music Group Дэвид Фостер, а коллаборации включают дуэты с Дженнифер Лопез, Нелли Фуртадо и даже виртуальный дуэт с Эдит Пиаф "La Vie En Rose". На "Passione" Андреа Бочелли поет на 6-ти языках как в сопровождении оркестра, так и под фортепианный аккомпанемент Дэвида Фостера.

2013 - PASSIONE {US Deluxe Edition}

Год выпуска диска : 29 января 2013
Производитель диска : США
Аудио кодек : FLAC
Тип рипа : image+.cue (Test & Copy)
Битрейт аудио : lossless
Продолжительность :69:00
Лейбл : Sugar / Verve
Каталожный номер : B0017995-02
Источник (релизер): Рип оригинального диска из личной коллекции
Сканы: прилагаются


01. Perfidia
02. Roma nun fa' la stupida stasera
03. Champagne
04. Anema e core
05. Quizás, quizás, quizás - duet with Jennifer Lopez
06. Era già tutto previsto
07. Tristeza
08. La vie en rose - duet with Edith Piaf
09. Corcovado - duet with Nelly Furtado
10. Sarà Settembre (September Morn)
11. Love in Portofino
12. Garota de Ipanema
13. Malafemmena
14. Love Me Tender
15. Il nostro incontro - featuring Chris Botti
16. Senza fine
17. A mano a mano
18. When I Fall in Love - featuring Chris Botti

Лог создания рипа

Exact Audio Copy V1.0 beta 3 from 29. August 2011
Отчёт EAC об извлечении, выполненном 24. февраля 2013, 9:48
Andrea Bocelli / Passione
Дисковод: TSSTcorpCDDVDW TS-L633J Adapter: 0 ID: 1
Режим чтения : Достоверность
Использование точного потока : Да
Отключение кэша аудио : Да
Использование указателей C2 : Нет
Коррекция смещения при чтении : 6
Способность читать области Lead-in и Lead-out : Нет
Заполнение пропущенных сэмплов тишиной : Да
Удаление блоков с тишиной в начале и конце : Нет
При вычислениях CRC использовались нулевые сэмплы : Да
Интерфейс : Встроенный Win32-интерфейс для Win NT/2000
Выходной формат : Пользовательский кодировщик
Выбранный битрейт : 1024 kBit/s
Качество : Высокий
Добавление ID3-тега : Нет
Утилита сжатия : C:\Program Files (x86)\Exact Audio Copy\FLAC\FLAC.EXE
Дополнительные параметры : -8 -V -T "ARTIST=%artist%" -T "TITLE=%title%" -T "ALBUM=%albumtitle%" -T "DATE=%year%" -T "TRACKNUMBER=%tracknr%" -T "GENRE=%genre%" -T "COMMENT=%comment%" -T "BAND=%albuminterpret%" -T "ALBUMARTIST=%albuminterpret%" -T "COMPOSER=%composer%" %haslyrics%--tag-from-file=LYRICS="%lyricsfile%"%haslyrics% -T "DISCNUMBER=%cdnumber%" -T "TOTALDISCS=%totalcds%" -T "TOTALTRACKS=%numtracks%" %hascover%--picture="%coverfile%"%hascover% %source% -o %dest%
TOC извлечённого CD
Трек | Старт | Длительность | Начальный сектор | Конечный сектор
---------------------------------------------------------------------
1 | 0:00.21 | 4:08.14 | 21 | 18634
2 | 4:08.35 | 4:14.25 | 18635 | 37709
3 | 8:22.60 | 3:49.72 | 37710 | 54956
4 | 12:12.57 | 4:10.17 | 54957 | 73723
5 | 16:22.74 | 3:18.40 | 73724 | 88613
6 | 19:41.39 | 3:43.57 | 88614 | 105395
7 | 23:25.21 | 3:24.56 | 105396 | 120751
8 | 26:50.02 | 3:08.34 | 120752 | 134885
9 | 29:58.36 | 3:36.51 | 134886 | 151136
10 | 33:35.12 | 3:42.48 | 151137 | 167834
11 | 37:17.60 | 3:01.21 | 167835 | 181430
12 | 40:19.06 | 3:38.09 | 181431 | 197789
13 | 43:57.15 | 4:18.43 | 197790 | 217182
14 | 48:15.58 | 3:52.71 | 217183 | 234653
15 | 52:08.54 | 4:33.08 | 234654 | 255136
16 | 56:41.62 | 3:18.10 | 255137 | 269996
17 | 59:59.72 | 4:19.25 | 269997 | 289446
18 | 64:19.22 | 4:41.27 | 289447 | 310548
Характеристики диапазона извлечения и сообщения об ошибках
Выбранный диапазон
Имя файла D:\Andrea Bocelli - Passione ( Deluxe Edition) 2013\Andrea Bocelli - Passione.wav
Пиковый уровень 100.0 %
Скорость извлечения 3.2 X
Качество диапазона 100.0 %
CRC теста DD1FAC5E
CRC копии DD1FAC5E
Копирование... OK
Ошибок не произошло
AccurateRip: сводка
Трек 1 отсутствует в базе данных
Трек 2 отсутствует в базе данных
Трек 3 отсутствует в базе данных
Трек 4 отсутствует в базе данных
Трек 5 отсутствует в базе данных
Трек 6 отсутствует в базе данных
Трек 7 отсутствует в базе данных
Трек 8 отсутствует в базе данных
Трек 9 отсутствует в базе данных
Трек 10 отсутствует в базе данных
Трек 11 отсутствует в базе данных
Трек 12 отсутствует в базе данных
Трек 13 отсутствует в базе данных
Трек 14 отсутствует в базе данных
Трек 15 отсутствует в базе данных
Трек 16 отсутствует в базе данных
Трек 17 отсутствует в базе данных
Трек 18 отсутствует в базе данных
Ни одного трека нет в базе AccurateRip
Конец отчёта
==== Контрольная сумма отчёта 24CB61740D90302F138449BB3E58CC06F87D662C3EBADCAE03D4B911426F9BD8 ====

Содержание индексной карты (.CUE)

REM GENRE Crossover
REM DATE 2013
REM DISCID DF102C12
REM COMMENT "ExactAudioCopy v1.0b3"
PERFORMER "Andrea Bocelli"
TITLE "Passione"
FILE "Andrea Bocelli - Passione.flac" WAVE
TRACK 01 AUDIO
TITLE "Perfidia"
PERFORMER "Andrea Bocelli"
FLAGS DCP
INDEX 00 00:00:00
INDEX 01 00:00:21
TRACK 02 AUDIO
TITLE "Roma Nun Fa' La Stupida Stasera"
PERFORMER "Andrea Bocelli"
FLAGS DCP
INDEX 00 04:06:58
INDEX 01 04:08:35
TRACK 03 AUDIO
TITLE "Champagne"
PERFORMER "Andrea Bocelli"
FLAGS DCP
INDEX 00 08:21:06
INDEX 01 08:22:60
TRACK 04 AUDIO
TITLE "Anema E Core"
PERFORMER "Andrea Bocelli"
FLAGS DCP
INDEX 00 12:11:10
INDEX 01 12:12:57
TRACK 05 AUDIO
TITLE "Quizas, quizas, quizas"
PERFORMER "Andrea Bocelli"
FLAGS DCP
INDEX 00 16:21:01
INDEX 01 16:22:74
TRACK 06 AUDIO
TITLE "Era gia tutto previsto"
PERFORMER "Andrea Bocelli"
FLAGS DCP
INDEX 00 19:41:15
INDEX 01 19:41:39
TRACK 07 AUDIO
TITLE "Tristeza"
PERFORMER "Andrea Bocelli"
FLAGS DCP
INDEX 00 23:22:53
INDEX 01 23:25:21
TRACK 08 AUDIO
TITLE "La vie en rose"
PERFORMER "Andrea Bocelli"
FLAGS DCP
INDEX 00 26:49:22
INDEX 01 26:50:02
TRACK 09 AUDIO
TITLE "Corcovado - Quiet nights of quiet stars"
PERFORMER "Andrea Bocelli"
FLAGS DCP
INDEX 00 29:56:55
INDEX 01 29:58:36
TRACK 10 AUDIO
TITLE "Sara settembre"
PERFORMER "Andrea Bocelli"
FLAGS DCP
INDEX 00 33:33:21
INDEX 01 33:35:12
TRACK 11 AUDIO
TITLE "Love in Portofino"
PERFORMER "Andrea Bocelli"
FLAGS DCP
INDEX 00 37:15:39
INDEX 01 37:17:60
TRACK 12 AUDIO
TITLE "Garota de Ipanema"
PERFORMER "Andrea Bocelli"
FLAGS DCP
INDEX 00 40:17:28
INDEX 01 40:19:06
TRACK 13 AUDIO
TITLE "Malafemmena"
PERFORMER "Andrea Bocelli"
FLAGS DCP
INDEX 00 43:55:19
INDEX 01 43:57:15
TRACK 14 AUDIO
TITLE "Love me tender"
PERFORMER "Andrea Bocelli"
FLAGS DCP
INDEX 00 48:14:21
INDEX 01 48:15:58
TRACK 15 AUDIO
TITLE "Il nostro incontro (feat. Chris Botti)"
PERFORMER "Andrea Bocelli"
FLAGS DCP
INDEX 00 52:07:63
INDEX 01 52:08:54
TRACK 16 AUDIO
TITLE "Senza fine"
PERFORMER "Andrea Bocelli"
FLAGS DCP
INDEX 00 56:40:55
INDEX 01 56:41:62
TRACK 17 AUDIO
TITLE "A mano a mano"
PERFORMER "Andrea Bocelli"
FLAGS DCP
INDEX 00 59:58:72
INDEX 01 59:59:72
TRACK 18 AUDIO
TITLE "When I fall in love (feat. Chris Botti)"
PERFORMER "Andrea Bocelli"
FLAGS DCP
INDEX 00 64:18:71
INDEX 01 64:19:22
-Дополнительная информация: В отличии от итальянского 18-трекового издания, на этом присутствуют песни "Anema e core" и "Roma nun fa la stupida stasera" но отсутствуют кавер Фрэнка Синатры "Strangers in the Night" на английском языке и песня Чарли Чаплина "Smile" на итальянском языке. .-



Показать сообщения:    

Текущее время: 05-Дек 11:31

Часовой пояс: UTC + 3


Вы не можете начинать темы
Вы не можете отвечать на сообщения
Вы не можете редактировать свои сообщения
Вы не можете удалять свои сообщения
Вы не можете голосовать в опросах
Вы не можете прикреплять файлы к сообщениям
Вы не можете скачивать файлы