Леонид Гайдай / Великий пересмешник (И. Холодков) [2013, Документальный, SATRip]


Статистика раздачи [Обновить пиров]
Размер:  566 MB   |    Зарегистрирован:  8 месяцев 21 день   |    Скачан:  1 раз

Полного источника не было: 2 месяца 27 дней

Личеров:  3  [  0 KB/s  ]   Подробная статистика пиров
 
   
 
 
 

[Цитировать]

Леонид Гайдай / Великий пересмешник
Год выпуска: 2013
Страна: Россия
Жанр: Документальный
Продолжительность: 00:45:57
Перевод: Не требуется
Режиссер: И. Холодков
В ролях: Нина Гребешкова, вдова Л.Гайдая, Наталья Варлей, Наталья Селезнёва, Дмитрий Харатьян, Владимир Этуш, Светлана Светличная, Максим Никулин, Александр Зацепин, Леонид Каневский, Игорь Ясулович, Александр Лойе, Карен Шахназаров

Описание: Когда человек смеется, он не боится и не страдает. Это изречение древних философов знаменитому советскому комедиографу Леониду Гайдаю наверняка было близко по духу. Потому что всю свою жизнь он стремился сделать так, чтобы как можно больше людей не боялись и не страдали, а смеялись. Причем, не одно поколение. Комедии Леонида Гайдая "Бриллиантовая рука", "Кавказская пленница", "Иван Васильевич меняет профессию". "Операция "Ы" и другие приключения Шурика", "Самогонщики" и другие, спустя много лет, остаются суперпопулярными у зрителей. Цитаты из его фильмов живы по сей день. В повседневной жизни Гайдай был малоразговорчивым человеком. По-настоящему он раскрывался только на съемочной площадке. Авторы фильма попытались рассказать, каким был Гайдай, как проходили съемки любимых фильмов, какие истории случались во время съемок. Съемочная группа побывала с актрисой Натальей Варлей в Алуште, где проходили съемки "Кавказской пленницы". Актриса вспомнила смешные и грустные моменты сьемок. А с актрисой Натальей Селезнёвой авторы отправились на "Мосфильм", где до сих пор хранятся костюмы и реквизит всех фильмов Гайдая. Также зрители увидят уникальные съемки из Иерусалима - последние съемки самого режиссёра, который обычно оставался за кадром.
качество: SATRip
формат: AVI
видеокодек: XviD
аудиокодек: MP3
Видео: XviD, 720x400, 1597 kb/s, 25 fps
Аудио: MP3, 2 ch, 128 kb/s, 48Khz
Раздача группы:
Релиз: dimich24

MI

Общее
Полное имя : E:\Downloads\55\L.Gaidai.Veliki.Peresmeshnik.02.02.2013.XviD.SATRip.avi
Формат : AVI
Формат/Информация : Audio Video Interleave
Размер файла : 566 Мбайт
Продолжительность : 45 м.
Общий поток : 1735 Кбит/сек
Библиотека кодирования : VirtualDub build 32842/release
Видео
Идентификатор : 0
Формат : MPEG-4 Visual
Профиль формата : Advanced Simple@L5
Параметр BVOP формата : 2
Параметр QPel формата : Нет
Параметр GMC формата : Без точки перехода
Параметр матрицы формата : Default (H.263)
Режим смешивания : Сжатый битовый поток
Идентификатор кодека : XVID
Идентификатор кодека/Подсказка : XviD
Продолжительность : 45 м.
Битрейт : 1597 Кбит/сек
Ширина : 720 пикс.
Высота : 400 пикс.
Соотношение сторон : 16:9
Частота кадров : 25,000 кадр/сек
Цветовое пространство : YUV
Подвыборка цветности : 4:2:0
Битовая глубина : 8 бит
Тип развёртки : Прогрессивная
Метод сжатия : С потерями
Бит/(Пиксели*Кадры) : 0.222
Размер потока : 521 Мбайт (92%)
Библиотека кодирования : XviD 64
Аудио
Идентификатор : 1
Формат : MPEG Audio
Версия формата : Version 1
Профиль формата : Layer 3
Режим : Joint stereo
Расширение режима : MS Stereo
Идентификатор кодека : 55
Идентификатор кодека/Подсказка : MP3
Продолжительность : 45 м.
Вид битрейта : Постоянный
Битрейт : 128 Кбит/сек
Каналы : 2 канала
Частота : 48,0 КГц
Метод сжатия : С потерями
Размер потока : 41,8 Мбайт (7%)
Выравнивание : Разделение по промежуткам
Продолжительность промежутка : 40 мс. (1,00 видеокадр)
Время предзагрузки промежутка : 500 ms

Скриншоты

[teatrix.ru].t16864.torrent 
Торрент: Зарегистрирован [ 2016-03-17 00:11 ] · 61FABC8F27D97817119563577AD1CB518FF8B43D

Скачать .torrent

Скачать

12 KB

Статус: проверено
Скачан: 1 раз
Размер: 566 MB
terms.php



Показать сообщения:    

Текущее время: 07-Дек 11:39

Часовой пояс: UTC + 3


Вы не можете начинать темы
Вы не можете отвечать на сообщения
Вы не можете редактировать свои сообщения
Вы не можете удалять свои сообщения
Вы не можете голосовать в опросах
Вы не можете прикреплять файлы к сообщениям
Вы можете скачивать файлы