Шталаги: порнография и холокост в Израиле / Stalags AKA Pornografie und Holocaust (Ари Либскер / Ari Libsker) [2008, Израиль, документальный, DVDRip] sub


Статистика раздачи [Обновить пиров]
Размер:  1.37 GB   |    Зарегистрирован:  8 месяцев 20 дней   |    Скачан:  0 раз

Полного источника не было: Никогда

Личеров:  3  [  0 KB/s  ]   Подробная статистика пиров
 
   
 
 
 

[Цитировать]

Шталаги: порнография и холокост в Израиле / Stalags AKA Pornografie und Holocaust
Страна: Израиль
Жанр: документальный
Год выпуска: 2008
Продолжительность: 01:02:42
Cубтитры: vxga
Оригинальная аудиодорожка: иврит
Режиссер: Ари Либскер / Ari Libsker
Описание: Шталаг - жанр порнографических романов о пытках и сексуальном насилии в концлагерях, существовавший в Израиле 1960-х годов.
Этот фильм рассказывает об истории жанра, знакомит с людьми, которые были авторами шталагов - или считались таковыми.
релиз:


Качество видео: DVDRip
Формат видео: AVI
Видео: MPEG-4 Visual, XviD, 2 796 Kbps, 672x384
Аудио: AC-3, 320 Kbps, 48.0 KHz, 2 ch
Формат субтитров: softsub (SRT)

media info

General
Complete name : D:\torrent\1 раздачи\Шталаги. Порнография и холокост в Израиле\Шталаги. Порнография и холокост в Израиле.avi
Format : AVI
Format/Info : Audio Video Interleave
File size : 1.37 GiB
Duration : 1h 2mn
Overall bit rate : 3 123 Kbps
Writing application : VirtualDubMod 1.5.4.1 (build 2178/release)
Writing library : VirtualDubMod build 2178/release
Video
ID : 0
Format : MPEG-4 Visual
Format profile : Advanced Simple@L5
Format settings, BVOP : 1
Format settings, QPel : No
Format settings, GMC : No warppoints
Format settings, Matrix : Custom
Codec ID : XVID
Codec ID/Hint : XviD
Duration : 1h 2mn
Bit rate : 2 796 Kbps
Width : 672 pixels
Height : 384 pixels
Display aspect ratio : 16:9
Frame rate : 25.000 fps
Color space : YUV
Chroma subsampling : 4:2:0
Bit depth : 8 bits
Scan type : Progressive
Compression mode : Lossy
Bits/(Pixel*Frame) : 0.433
Stream size : 1.22 GiB (90%)
Writing library : XviD 1.2.1 (UTC 2008-12-04)
Audio
ID : 1
Format : AC-3
Format/Info : Audio Coding 3
Mode extension : CM (complete main)
Format settings, Endianness : Big
Codec ID : 2000
Duration : 1h 2mn
Bit rate mode : Constant
Bit rate : 320 Kbps
Channel(s) : 2 channels
Channel positions : Front: L R
Sampling rate : 48.0 KHz
Bit depth : 16 bits
Compression mode : Lossy
Stream size : 144 MiB (10%)
Alignment : Split accross interleaves
Interleave, duration : 96 ms (2.40 video frames)
Interleave, preload duration : 96 ms
Language : Hebrew

субтитры

3
00:00:45,560 --> 00:00:50,361
Ничего необычного - кроме факта,
что они были женщинами.
4
00:00:51,320 --> 00:00:54,403
Два взвода зверей из женского СС
5
00:00:54,520 --> 00:00:57,763
в узких брюках, сияющих сапогах
6
00:00:57,960 --> 00:01:01,806
и куртках, распираемых
их цветущими грудями.
7
00:01:03,040 --> 00:01:06,965
Под фуражками были видны
короткие стрижки,
8
00:01:07,240 --> 00:01:11,404
но волосы были отличными,
а шеи нежными и женственными.
9
00:01:11,960 --> 00:01:15,009
"Господи Боже,- кто-то прошептал,-
10
00:01:15,120 --> 00:01:18,966
настоящие дамочки с попами и сиськами."
11
00:01:27,680 --> 00:01:34,040
ШТАЛАГИ
Порнография и Холокост
12
00:01:38,440 --> 00:01:42,081
Впервые я увидел шталаги
в букинистическом магазине.
13
00:01:42,200 --> 00:01:43,770
Брошюры с красочными обложками
14
00:01:43,880 --> 00:01:48,568
и изображениями грудастых женщин из СС,
пытающих сильных мужчин.
15
00:01:49,200 --> 00:01:51,487
Она стоит 140 шекелей.
-140 шекелей?
16
00:01:51,600 --> 00:01:54,331
Да. Смотри.
- Это стоит 140 шекелей?
17
00:01:55,120 --> 00:01:57,361
И люди их покупают.
18
00:01:57,560 --> 00:02:00,484
Их больше не найти.
Они из 60-ых.
19
00:02:02,400 --> 00:02:05,165
Сюжеты шталаг похожи,
20
00:02:05,280 --> 00:02:07,647
это вариации одной темы.
21
00:02:09,280 --> 00:02:11,681
Период: Вторая мировая война.
22
00:02:11,800 --> 00:02:15,009
Союзники постоянно бомбят войска нацистов.
23
00:02:15,160 --> 00:02:19,210
Герой - американский или британский летчик,
чей самолет подбили.
24
00:02:19,440 --> 00:02:23,604
Он прыгает с парашютом
над оккупированной европейской территорией.
25
00:02:27,040 --> 00:02:30,931
Его берут в плен и отправляют
в лагерь, "шталаг".
26
00:02:31,080 --> 00:02:34,926
"Stammlager" по-немецки,
что означает постоянный лагерь.
27
00:02:38,000 --> 00:02:42,289
К своему удивлению, он обнаруживает,
что охрана -
28
00:02:42,400 --> 00:02:45,847
это женщины-садистки из СС,
которые пытают его и насилуют.
29
00:02:55,280 --> 00:02:59,604
Несколько книг шталаг все еще ходят
по рукам, покупаемые тайной группой
30
00:02:59,720 --> 00:03:03,122
собирателей, пристрастившихся
к этому литературному жанру.
31
00:03:05,040 --> 00:03:08,487
Я нашел одну из этих книг
в доме отца.
32
00:03:08,600 --> 00:03:12,924
Для меня это было сильным шоком,
33
00:03:16,080 --> 00:03:17,570
действительно грубым.
34
00:03:18,160 --> 00:03:19,810
Смотрите, вы не...
35
00:03:19,920 --> 00:03:24,847
в этом контексте вы не говорите
с людьми о чувствах.
36
00:03:24,960 --> 00:03:27,964
Все эти сексуальные, эмоциональные,
военные условия
[teatrix.ru].t16865.torrent 
Торрент: Зарегистрирован [ 2016-03-17 00:15 ] · 665956FFF908C849D4329DEFEAF9F956D147970C

Скачать .torrent

Скачать

15 KB

Статус: проверено
Скачан: 0 раз
Размер: 1.37 GB
terms.php



Показать сообщения:    

Текущее время: 06-Дек 13:11

Часовой пояс: UTC + 3


Вы не можете начинать темы
Вы не можете отвечать на сообщения
Вы не можете редактировать свои сообщения
Вы не можете удалять свои сообщения
Вы не можете голосовать в опросах
Вы не можете прикреплять файлы к сообщениям
Вы можете скачивать файлы