Джин Келли – Анатомия танцора / Gene Kelly - Anatomy of a Dancer (Роберт Трахтенбер / Robert Trachtenberg) [2002, музыкальный, документальный, DVDRip]


Статистика раздачи [Обновить пиров]
Размер:  1.46 GB   |    Зарегистрирован:  8 месяцев 25 дней   |    Скачан:  0 раз

Полного источника не было: Никогда

Личеров:  3  [  0 KB/s  ]   Подробная статистика пиров
 
   
 
 
 

[Цитировать]

Джин Келли – Анатомия танцора / Gene Kelly - Anatomy of a Dancer
Год выпуска: 2002
Страна: США
Жанр: музыкальный, документальный
Продолжительность: 01:25:08.186 (122474 frames)
Перевод: не требуется
Русские субтитры: нет
Режиссер: Роберт Трахтенбер / Robert Trachtenberg
В ролях: Fred Astaire, Jeanine Basinger, Betsy Blair, Leslie Caron, Cyd Charisse, Betty Comden, Dan Dailey, Stanley Donen, Nina Foch, Douglas Fowley, Judy Garland, Betty Garrett, Beth Genne, Kathryn Grayson, Adolph Green, Jean Hagen, Rita Hayworth, Clive Hirschhorn, Deborah Jowitt, Gene Kelly, Kerry Kelly, Michael Kidd, Arthur Laurents, Ann Miller, Elvis Mitchell, Millard Mitchell, Fayard Nicholas, Donald O'Connor, Kenny Ortega, André Previn, Debbie Reynolds, Stephen M. Silverman, Phil Silvers, Frank Sinatra, Vera-Ellen, Esther Williams, Peter Wollen, Keenan Wynn
Описание: Это музыкально-биографический фильм о Джин Келли из серии "Американские мастера". В этом фильме великолепно подобраны отрывки из кинофильмов с участием Джина Келли, иллюстрирующие его потрясающий танцевальный стиль и его заоблачные хореографических амбиций. Сюда вошли и прекрасное танцевальное соло с зонтиком в руке в фильме "Поющие под дождем", и конечно, его номер из фильма "Девушка с обложки". Интервью взятые у коллег по актёрскому цеху таких, как Дебби Рейнольдс и Андре Превин не оставляют сомнений в его самолюбие и его перфекционизме. Рассказ о нём актрисы Бетси Блэр, его первой жены, чей интеллект и искренность хорошо отражают их совместный жизненный путь. Образ "синих воротничков" созданный Джином Келли, который позволил аудитории принять танцующих с балетной точностью и матросов, и бейсболистов. А это уже точно - магический талант Гения.
Качество: DVDRip
Формат: AVI
Видео кодек: XviD
Аудио кодек: AC3
Видео: 640x480 (1.33:1), 23.976 fps, XviD build 65 ~2255 kbps avg, 0.31 bit/pixel
Аудио: 48 kHz, AC3 Dolby Digital, 2/0 (L,R) ch, ~192.00 kbps avg

Скриншоты

Медиаинфо

General
Complete name : H:\003 Мои раздачи\Джин келли 1,46\Gene_Kelly_1.46_[torrents.ru]_by_bm11.avi
Format : AVI
Format/Info : Audio Video Interleave
File size : 1.46 GiB
Duration : 1h 25mn
Overall bit rate : 2 456 Kbps
Director : bm11
Writing application : VirtualDubMod 1.5.10.2 (build 2540/release)
Video
ID : 0
Format : MPEG-4 Visual
Format profile : Advanced Simple@L5
Format settings, BVOP : Yes
Format settings, QPel : No
Format settings, GMC : No warppoints
Format settings, Matrix : Custom
Codec ID : XVID
Codec ID/Hint : XviD
Duration : 1h 25mn
Bit rate : 2 255 Kbps
Width : 640 pixels
Height : 480 pixels
Display aspect ratio : 4:3
Frame rate : 23.976 fps
Color space : YUV
Chroma subsampling : 4:2:0
Bit depth : 8 bits
Scan type : Progressive
Bits/(Pixel*Frame) : 0.306
Stream size : 1.34 GiB (92%)
Writing library : XviD 65
Audio
ID : 1
Format : AC-3
Format/Info : Audio Coding 3
Format profile : Dolby Digital
Mode extension : CM (complete main)
Codec ID : 2000
Duration : 1h 25mn
Bit rate mode : Constant
Bit rate : 192 Kbps
Channel(s) : 2 channels
Channel positions : Front: L R
Sampling rate : 48.0 KHz
Bit depth : 16 bits
Video delay : 21ms
Stream size : 117 MiB (8%)
Alignment : Split accross interleaves
Interleave, duration : 42 ms (1.00 video frame)
Interleave, preload duration : 500 ms
[teatrix.ru].t16869.torrent 
Торрент: Зарегистрирован [ 2016-03-17 00:14 ] · 317A67ED4A2B833372B088059674D465DF8A7B99

Скачать .torrent

Скачать

15 KB

Статус: проверено
Скачан: 0 раз
Размер: 1.46 GB
terms.php



Показать сообщения:    

Текущее время: 11-Дек 11:04

Часовой пояс: UTC + 3


Вы не можете начинать темы
Вы не можете отвечать на сообщения
Вы не можете редактировать свои сообщения
Вы не можете удалять свои сообщения
Вы не можете голосовать в опросах
Вы не можете прикреплять файлы к сообщениям
Вы можете скачивать файлы