Джин Келли – Анатомия танцора / Gene Kelly - Anatomy of a Dancer (Роберт Трахтенбер / Robert Trachtenberg) [2002, музыкальный, документальный, DVDRip]


Статистика раздачи [Обновить пиров]
Размер:  744 MB   |    Зарегистрирован:  8 месяцев 19 дней   |    Скачан:  0 раз

Полного источника не было: Никогда

Личеров:  3  [  0 KB/s  ]   Подробная статистика пиров
 
   
 
 
 

[Цитировать]

Джин Келли – Анатомия танцора / Gene Kelly - Anatomy of a Dancer
Год выпуска: 2002
Страна: США
Жанр: музыкальный, документальный
Продолжительность: 01:25:08.186 (122474 frames)
Перевод: не требуется
Русские субтитры: нет
Режиссер: Роберт Трахтенбер / Robert Trachtenberg
В ролях: Fred Astaire, Jeanine Basinger, Betsy Blair, Leslie Caron, Cyd Charisse, Betty Comden, Dan Dailey, Stanley Donen, Nina Foch, Douglas Fowley, Judy Garland, Betty Garrett, Beth Genne, Kathryn Grayson, Adolph Green, Jean Hagen, Rita Hayworth, Clive Hirschhorn, Deborah Jowitt, Gene Kelly, Kerry Kelly, Michael Kidd, Arthur Laurents, Ann Miller, Elvis Mitchell, Millard Mitchell, Fayard Nicholas, Donald O'Connor, Kenny Ortega, André Previn, Debbie Reynolds, Stephen M. Silverman, Phil Silvers, Frank Sinatra, Vera-Ellen, Esther Williams, Peter Wollen, Keenan Wynn
Описание: Это музыкально-биографический фильм о Джин Келли из серии "Американские мастера". В этом фильме великолепно подобраны отрывки из кинофильмов с участием Джина Келли, иллюстрирующие его потрясающий танцевальный стиль и его заоблачные хореографических амбиций. Сюда вошли и прекрасное танцевальное соло с зонтиком в руке в фильме "Поющие под дождем", и конечно, его номер из фильма "Девушка с обложки". Интервью взятые у коллег по актёрскому цеху таких, как Дебби Рейнольдс и Андре Превин не оставляют сомнений в его самолюбие и его перфекционизме. Рассказ о нём актрисы Бетси Блэр, его первой жены, чей интеллект и искренность хорошо отражают их совместный жизненный путь. Образ "синих воротничков" созданный Джином Келли, который позволил аудитории принять танцующих с балетной точностью и матросов, и бейсболистов. А это уже точно - магический талант Гения.
Качество: DVDRip
Формат: AVI
Видео кодек: XviD
Аудио кодек: МР3
Видео: 640x480 (1.33:1), 23.976 fps, XviD build 65 ~1083 kbps avg, 0.15 bit/pixel
Аудио: 48 kHz, MPEG Layer 3, 2 ch, ~128.00 kbps avg

Скриншоты

Медиаинфо

General
Complete name : H:\003 Мои раздачи\Джин келли 745\Gene_Kelly_745_[torrents.ru]_by_bm11.avi
Format : AVI
Format/Info : Audio Video Interleave
File size : 744 MiB
Duration : 1h 25mn
Overall bit rate : 1 221 Kbps
Director : bm11
Writing application : VirtualDubMod 1.5.10.2 (build 2540/release)
Video
ID : 0
Format : MPEG-4 Visual
Format profile : Advanced Simple@L5
Format settings, BVOP : Yes
Format settings, QPel : No
Format settings, GMC : No warppoints
Format settings, Matrix : Custom
Codec ID : XVID
Codec ID/Hint : XviD
Duration : 1h 25mn
Bit rate : 1 084 Kbps
Width : 640 pixels
Height : 480 pixels
Display aspect ratio : 4:3
Frame rate : 23.976 fps
Color space : YUV
Chroma subsampling : 4:2:0
Bit depth : 8 bits
Scan type : Progressive
Bits/(Pixel*Frame) : 0.147
Stream size : 660 MiB (89%)
Writing library : XviD 65
Audio
ID : 1
Format : MPEG Audio
Format version : Version 1
Format profile : Layer 3
Mode : Joint stereo
Codec ID : 55
Codec ID/Hint : MP3
Duration : 1h 25mn
Bit rate mode : Constant
Bit rate : 128 Kbps
Channel(s) : 2 channels
Sampling rate : 48.0 KHz
Stream size : 77.9 MiB (10%)
Alignment : Aligned on interleaves
Interleave, duration : 42 ms (1.00 video frame)
Interleave, preload duration : 504 ms
Writing library : LAME3.90.3
[teatrix.ru].t16870.torrent 
Торрент: Зарегистрирован [ 2016-03-17 00:14 ] · E46B534DE4FF35B8603918FA5FBCEBEB22D979C0

Скачать .torrent

Скачать

15 KB

Статус: проверено
Скачан: 0 раз
Размер: 744 MB
terms.php



Показать сообщения:    

Текущее время: 05-Дек 23:37

Часовой пояс: UTC + 3


Вы не можете начинать темы
Вы не можете отвечать на сообщения
Вы не можете редактировать свои сообщения
Вы не можете удалять свои сообщения
Вы не можете голосовать в опросах
Вы не можете прикреплять файлы к сообщениям
Вы можете скачивать файлы