(Jazz, madrigal) Roberta Mameli, La Venexiana, Claudio Cavina - 'Round M. Monteverdi Meets Jazz - 2010, FLAC (image+.cue) lossless


 

[Цитировать]

Roberta Mameli, La Venexiana, Claudio Cavina / 'Round M. Monteverdi Meets Jazz
Жанр: Jazz, madrigal
Страна-производитель диска: Spain
Год издания диска: 2010
Издатель (лейбл): Glossa
Номер по каталогу: GCD P30917
Страна: Italy
Аудиокодек: FLAC
Тип рипа: image+.cue
Битрейт аудио: lossless
Продолжительность: 61:10
Источник: собственный рип
Наличие сканов в содержимом раздачи: да
Треклист:
[1] Claudio Monteverdi: Lamento della ninfa
[2] Claudio Monteverdi: Ohimè ch'io cado
[3] Giovanni Felice Sances: Usurpator tiranno
[4] Tarquinio Merula: Canzonetta spirituale sopra la nanna
[5] Nicolò Fontei: Pianto di Erinna
[6] Claudio Monteverdi: Romanesca - Ohimè dov'è il mio ben
[7] Claudio Monteverdi: Si dolc’è il tormento
[8] Antonio Eros Negri: Trasfigurazione della ninfa
Roberta Mameli soprano
La Venexiana
Claudio Cavina

Лог создания рипа

Exact Audio Copy V1.0 beta 3 from 29. August 2011
EAC extraction logfile from 4. February 2013, 16:24
La Venexiana, Claudio Cavina / Round M
Used drive : HL-DT-STDVDRRW GWA-4164B Adapter: 5 ID: 0
Read mode : Secure
Utilize accurate stream : Yes
Defeat audio cache : Yes
Make use of C2 pointers : No
Read offset correction : 102
Overread into Lead-In and Lead-Out : No
Fill up missing offset samples with silence : Yes
Delete leading and trailing silent blocks : No
Null samples used in CRC calculations : Yes
Used interface : Native Win32 interface for Win NT & 2000
Used output format : User Defined Encoder
Selected bitrate : 896 kBit/s
Quality : High
Add ID3 tag : No
Command line compressor : C:\Program Files\Exact Audio Copy\FLAC\FLAC.EXE
Additional command line options : -V -8 %source%
TOC of the extracted CD
Track | Start | Length | Start sector | End sector
---------------------------------------------------------
1 | 0:00.00 | 7:50.63 | 0 | 35312
2 | 7:50.63 | 5:17.00 | 35313 | 59087
3 | 13:07.63 | 9:03.00 | 59088 | 99812
4 | 22:10.63 | 9:42.00 | 99813 | 143462
5 | 31:52.63 | 8:08.00 | 143463 | 180062
6 | 40:00.63 | 5:54.00 | 180063 | 206612
7 | 45:54.63 | 6:53.00 | 206613 | 237587
8 | 52:47.63 | 8:20.12 | 237588 | 275099
Range status and errors
Selected range
Filename C:\temp\Round M - Monteverdi Meets Jazz\Round M.wav
Peak level 99.8 %
Extraction speed 1.8 X
Range quality 100.0 %
Test CRC 7BDE6B0A
Copy CRC 7BDE6B0A
Copy OK
No errors occurred
End of status report
==== Log checksum F773742DEE8F0180299D5F571977802CD99309B2B5E42524BCFF3E371BF1C1D7 ====



Показать сообщения:    

Текущее время: 07-Дек 11:36

Часовой пояс: UTC + 3


Вы не можете начинать темы
Вы не можете отвечать на сообщения
Вы не можете редактировать свои сообщения
Вы не можете удалять свои сообщения
Вы не можете голосовать в опросах
Вы не можете прикреплять файлы к сообщениям
Вы не можете скачивать файлы