Сделано в Голливуде / Made in Hollywood (Энн Файнзильбер) [2011, Док. фильм, SATRip]


Статистика раздачи [Обновить пиров]
Размер:  319 MB   |    Зарегистрирован:  8 месяцев 20 дней   |    Скачан:  0 раз

Полного источника не было: Никогда

Личеров:  3  [  0 KB/s  ]   Подробная статистика пиров
 
   
 
 
 

[Цитировать]

Сделано в Голливуде / Made in Hollywood
Год выпуска: 2011
Страна: США
Жанр: Док. фильм
Продолжительность: 00:52:10
Перевод: Субтитры
Русские субтитры: есть
Режиссер: Энн Файнзильбер
Описание: Режиссер Энн Файнзильбер / Anne Feinsilber, США
Премьера состоялась 12 мая 2011 года

Что такое блокбастеры, как они повлияли на современное американское кино - об этом рассуждают известные деятели Голливуда.
SATRip от : Твид
Доп. информация: Доп. информация: Любезно предоставлено клубом Fenix
Сэмпл: http://multi-up.com/829071
качество: SATRip
формат: AVI
видеокодек: XviD
аудиокодек: MP3
Видео: XviD, 719 kb/s, 640x480, 25 fps, 0.094 bits/pixel
Аудио: 0x0055(MP3) ID'd as MPEG-1 Layer 3, 128 kb/s (2/ch, stereo) CBR, 48000 Hz - Английский

MediaInfo

Общее
Полное имя : D:\FILMS\Sdelano v Gollivude.SAT-rip.by.Твид.fenixclub.avi
Формат : AVI
Формат/Информация : Audio Video Interleave
Размер файла : 319 Мбайт
Продолжительность : 52 м.
Общий поток : 854 Кбит/сек
Программа кодирования : VirtualDubMod 1.5.10.2 (build 2540/release)
Библиотека кодирования : VirtualDubMod build 2540/release
Видео
Идентификатор : 0
Формат : MPEG-4 Visual
Профиль формата : Advanced Simple@L5
Параметр BVOP формата : 2
Параметр QPel формата : Нет
Параметр GMC формата : Без точки перехода
Параметр матрицы формата : Default (H.263)
Режим смешивания : Сжатый битовый поток
Идентификатор кодека : XVID
Идентификатор кодека/Подсказка : XviD
Продолжительность : 52 м.
Битрейт : 716 Кбит/сек
Ширина : 640 пикселей
Высота : 480 пикселей
Соотношение сторон : 4:3
Частота кадров : 25,000 кадров/сек
Цветовое пространство : YUV
Субдискретизация насыщенности : 4:2:0
Битовая глубина : 8 бит
Тип развёртки : Прогрессивная
Метод сжатия : С потерями
Бит/(Пиксели*Кадры) : 0.093
Размер потока : 267 Мбайт (84%)
Библиотека кодирования : XviD 1.1.2 (UTC 2006-11-01)
Аудио
Идентификатор : 1
Формат : MPEG Audio
Версия формата : Version 1
Профиль формата : Layer 3
Режим : Joint stereo
Расширение режима : MS Stereo
Идентификатор кодека : 55
Идентификатор кодека/Подсказка : MP3
Продолжительность : 52 м.
Вид битрейта : Постоянный
Битрейт : 128 Кбит/сек
Каналы : 2 канала
Частота : 48,0 КГц
Метод сжатия : С потерями
Размер потока : 47,8 Мбайт (15%)
Выравнивание : Разделение по промежуткам
Продолжительность промежутка : 40 мс. (1,00 видеокадр)
Время предзагрузки промежутка : 500 мс.

Скриншоты

[teatrix.ru].t16875.torrent 
Торрент: Зарегистрирован [ 2016-03-17 00:14 ] · 7137C5EA60221D1415A31E4188580DBE434DD155

Скачать .torrent

Скачать

13 KB

Статус: проверено
Скачан: 0 раз
Размер: 319 MB
terms.php



Показать сообщения:    

Текущее время: 06-Дек 22:50

Часовой пояс: UTC + 3


Вы не можете начинать темы
Вы не можете отвечать на сообщения
Вы не можете редактировать свои сообщения
Вы не можете удалять свои сообщения
Вы не можете голосовать в опросах
Вы не можете прикреплять файлы к сообщениям
Вы можете скачивать файлы