Легенды Дубляжа (27 выпусков) [2012-2013, документальный, WEBRip]


Статистика раздачи [Обновить пиров]
Размер:  8.71 GB   |    Зарегистрирован:  8 месяцев 17 дней   |    Скачан:  0 раз

Полного источника не было: Никогда

Личеров:  3  [  0 KB/s  ]   Подробная статистика пиров
 
   
 
 
 

[Цитировать]

Легенды Дубляжа
Год выпуска: 2012-2013
Страна: Россия
Студия: Кинопоиск
Жанр: Документальное кино о работниках кинематографа
Количество выпусков (по персонам): 27
Количество серий: 34
Продолжительность: 08:43:29
Перевод: Не требуется
Режиссер: Сергей Бандуровский
Описание: В конце 20-х годов XX века Великий Немой, наконец-то, заговорил! И сразу перестал быть интернациональным, понятным всем и каждому в любом уголке планеты. И сразу же возник вопрос: Как сделать, чтобы кинофильм, снятый на иностранном языке, можно было показать в России, чтобы все всё поняли?
И тогда изобретается система дублирования фильмов. В СССР в 1935 году в НИКФИ, под руководством кинорежиссёра Марка Донского дублируется на русский язык фильм производства американской студии Universal «Человек-Невидимка». Это символично прежде всего тем, что вместо актёров, которые играют в кадре, впервые заговорили по-русски другие, тоже «невидимки».
Первым русским «человеком-невидимкой» стал актёр Алексей Консовский. Теперь их много. Они среди нас. Благодаря им мы можем смотреть зарубежные фильмы на родном и понятном нам языке. Мы знаем их по голосам и по фамилиям наперечёт. Но кто они? Как выглядят эти «невидимки»? Чем живут? Что любят? Вот об этом они нам и расскажут.
качество: WEBRip
формат: MP4
видеокодек: MPEG-4
аудиокодек: AAC
Видео: 640x360 (16:9), 29.970 fps, MPEG-4 1981-4339 kbps avc
Аудио: 48 kHz, AAC, 2/0 (L,R) ch, ~128.00 kbps
Доп.информация: Загружено с сайта Кинопоиск.ру. Рядовые пользователи сети относятся к Кинопоиску как простому справочнику по фильмам, хотя это этот ресурс давно, но по-прежнему малозаметно, ведёт качественную культурологическую работу.
Так что по моему мнению созрела необходимость в создании релиза а-ля "собрание трудов", которое будет полезно для жертв или любителей оффлайна.
Админы Кинопоиска, пожалуйста, не наказывайте!

Список выпусков/серий

Выпуск №1 (Александр Баргман)
Выпуск №2 (Вадим Андреев)
Выпуск №3 (Станислав Концевич)
Выпуск №4 (Вадим Терентьев)
Выпуск №5 (Валентина Гришокина)
Выпуск №6 (Валерий Соловьёв)
Выпуск №7 (Владимир Ерёмин)
Выпуск №8 (Ирина Карташёва)
Выпуск №9 (Михаил Вулих)
Выпуск №10 (Владимир Антоник)
Выпуск №11 (Владислав Пупков)
Выпуск №12 (Алексей Сафонов)
Выпуск №13 (Олег Дашкевич)
Выпуск №14 (Игорь Ефимов)
Выпуск №15 (Сергей Паршин)
Выпуск №16 (Тимофей Спивак)
Выпуск №17 (Олег Куликович)
Выпуск №18 (Галина Чигинская)
Выпуск №19 (Анастасия Гиренкова)
Выпуск №20 (Виктор Костецкий)
Выпуск №21 (Юрий Швырев)
Выпуск №22 (Наталья Казначеева)
Выпуск №23 (Ярослава Турылёва)
Выпуск №24 (Виталий Дорошенко)
Выпуск №25 (Ольга Гобзева)
Выпуск №26 (Сергей Малишевский)
Выпуск №27 (Елена Арабова)

MediaInfo 0.7.62

Общее
Полное имя : C:\Users\AltzGamer\Videos\Легенды Дубляжа\01 Александр Баргман.mp4
Формат : MPEG-4
Профиль формата : QuickTime
Идентификатор кодека : qt
Размер файла : 231 Мбайт
Продолжительность : 13 м.
Режим общего битрейта : Переменный
Общий поток : 2383 Кбит/сек
Дата кодирования : UTC 2012-08-04 20:00:00
Дата пометки : UTC 2012-08-04 20:00:00
Программа кодирования : Lavf53.10.0
Видео
Идентификатор : 1
Формат : AVC
Формат/Информация : Advanced Video Codec
Профиль формата : Baseline@L3.0
Параметр CABAC формата : Нет
Параметр ReFrames формата : 1 кадр
Параметр GOP формата : M=1, N=12
Идентификатор кодека : avc1
Идентификатор кодека/Информация : Advanced Video Coding
Продолжительность : 13 м.
Вид битрейта : Переменный
Битрейт : 2250 Кбит/сек
Максимальный битрейт : 2700 Кбит/сек
Ширина : 640 пикселей
Высота : 360 пикселей
Соотношение сторон : 16:9
Режим частоты кадров : Постоянный
Частота кадров : 29,970 кадров/сек
Частота кадров в оригинале : 24,000 кадра/сек
Цветовое пространство : YUV
Субдискретизация насыщенности : 4:2:0
Битовая глубина : 8 бит
Тип развёртки : Прогрессивная
Бит/(Пиксели*Кадры) : 0.326
Размер потока : 219 Мбайт (94%)
Язык : English
Дата кодирования : UTC 2012-08-04 20:00:00
Дата пометки : UTC 2012-08-04 20:00:00
Аудио
Идентификатор : 2
Формат : AAC
Формат/Информация : Advanced Audio Codec
Профиль формата : LC
Идентификатор кодека : 40
Продолжительность : 13 м.
Вид битрейта : Постоянный
Битрейт : 128 Кбит/сек
Каналы : 2 канала
Расположение каналов : Front: L R
Частота : 48,0 КГц
Метод сжатия : С потерями
Размер потока : 12,4 Мбайт (5%)
Язык : English
Дата кодирования : UTC 2012-08-04 20:00:00
Дата пометки : UTC 2012-08-04 20:00:00
Общее
Полное имя : C:\Users\AltzGamer\Videos\Легенды Дубляжа\02 Вадим Андреев.mp4
Формат : MPEG-4
Профиль формата : QuickTime
Идентификатор кодека : qt
Размер файла : 253 Мбайт
Продолжительность : 16 м.
Общий поток : 2122 Кбит/сек
Дата кодирования : UTC 2012-07-22 20:00:00
Дата пометки : UTC 2012-07-22 20:00:00
Программа кодирования : Lavf53.10.0
Видео
Идентификатор : 1
Формат : AVC
Формат/Информация : Advanced Video Codec
Профиль формата : Baseline@L3.1
Параметр CABAC формата : Нет
Параметр ReFrames формата : 1 кадр
Параметр GOP формата : M=1, N=12
Идентификатор кодека : avc1
Идентификатор кодека/Информация : Advanced Video Coding
Продолжительность : 16 м.
Битрейт : 1990 Кбит/сек
Ширина : 640 пикселей
Высота : 360 пикселей
Соотношение сторон : 16:9
Режим частоты кадров : Постоянный
Частота кадров : 29,970 кадров/сек
Цветовое пространство : YUV
Субдискретизация насыщенности : 4:2:0
Битовая глубина : 8 бит
Тип развёртки : Прогрессивная
Бит/(Пиксели*Кадры) : 0.288
Размер потока : 237 Мбайт (94%)
Язык : English
Дата кодирования : UTC 2012-07-22 20:00:00
Дата пометки : UTC 2012-07-22 20:00:00
Аудио
Идентификатор : 2
Формат : AAC
Формат/Информация : Advanced Audio Codec
Профиль формата : LC
Идентификатор кодека : 40
Продолжительность : 16 м.
Вид битрейта : Постоянный
Битрейт : 128 Кбит/сек
Каналы : 2 канала
Расположение каналов : Front: L R
Частота : 48,0 КГц
Метод сжатия : С потерями
Размер потока : 15,2 Мбайт (6%)
Язык : English
Дата кодирования : UTC 2012-07-22 20:00:00
Дата пометки : UTC 2012-07-22 20:00:00
Общее
Полное имя : C:\Users\AltzGamer\Videos\Легенды Дубляжа\03 Станислав Концевич.mp4
Формат : MPEG-4
Профиль формата : QuickTime
Идентификатор кодека : qt
Размер файла : 223 Мбайт
Продолжительность : 12 м.
Общий поток : 2532 Кбит/сек
Дата кодирования : UTC 2012-08-03 20:00:00
Дата пометки : UTC 2012-08-03 20:00:00
Программа кодирования : Lavf53.10.0
Видео
Идентификатор : 1
Формат : AVC
Формат/Информация : Advanced Video Codec
Профиль формата : Main@L5.1
Параметр CABAC формата : Да
Параметр ReFrames формата : 1 кадр
Идентификатор кодека : avc1
Идентификатор кодека/Информация : Advanced Video Coding
Продолжительность : 12 м.
Битрейт : 2399 Кбит/сек
Ширина : 640 пикселей
Высота : 360 пикселей
Соотношение сторон : 16:9
Режим частоты кадров : Постоянный
Частота кадров : 29,970 кадров/сек
Цветовое пространство : YUV
Субдискретизация насыщенности : 4:2:0
Битовая глубина : 8 бит
Тип развёртки : Прогрессивная
Бит/(Пиксели*Кадры) : 0.347
Размер потока : 212 Мбайт (95%)
Язык : English
Дата кодирования : UTC 2012-08-03 20:00:00
Дата пометки : UTC 2012-08-03 20:00:00
Аудио
Идентификатор : 2
Формат : AAC
Формат/Информация : Advanced Audio Codec
Профиль формата : LC
Идентификатор кодека : 40
Продолжительность : 12 м.
Вид битрейта : Постоянный
Битрейт : 128 Кбит/сек
Каналы : 2 канала
Расположение каналов : Front: L R
Частота : 48,0 КГц
Метод сжатия : С потерями
Размер потока : 11,3 Мбайт (5%)
Язык : English
Дата кодирования : UTC 2012-08-03 20:00:00
Дата пометки : UTC 2012-08-03 20:00:00
Общее
Полное имя : C:\Users\AltzGamer\Videos\Легенды Дубляжа\04 Вадим Терентьев.mp4
Формат : MPEG-4
Профиль формата : QuickTime
Идентификатор кодека : qt
Размер файла : 282 Мбайт
Продолжительность : 15 м.
Общий поток : 2522 Кбит/сек
Дата кодирования : UTC 2012-08-05 20:00:00
Дата пометки : UTC 2012-08-05 20:00:00
Программа кодирования : Lavf53.10.0
Видео
Идентификатор : 1
Формат : AVC
Формат/Информация : Advanced Video Codec
Профиль формата : Main@L5.1
Параметр CABAC формата : Да
Параметр ReFrames формата : 1 кадр
Идентификатор кодека : avc1
Идентификатор кодека/Информация : Advanced Video Coding
Продолжительность : 15 м.
Битрейт : 2389 Кбит/сек
Ширина : 640 пикселей
Высота : 360 пикселей
Соотношение сторон : 16:9
Режим частоты кадров : Постоянный
Частота кадров : 29,970 кадров/сек
Цветовое пространство : YUV
Субдискретизация насыщенности : 4:2:0
Битовая глубина : 8 бит
Тип развёртки : Прогрессивная
Бит/(Пиксели*Кадры) : 0.346
Размер потока : 267 Мбайт (95%)
Язык : English
Дата кодирования : UTC 2012-08-05 20:00:00
Дата пометки : UTC 2012-08-05 20:00:00
Аудио
Идентификатор : 2
Формат : AAC
Формат/Информация : Advanced Audio Codec
Профиль формата : LC
Идентификатор кодека : 40
Продолжительность : 15 м.
Вид битрейта : Постоянный
Битрейт : 128 Кбит/сек
Каналы : 2 канала
Расположение каналов : Front: L R
Частота : 48,0 КГц
Метод сжатия : С потерями
Размер потока : 14,3 Мбайт (5%)
Язык : English
Дата кодирования : UTC 2012-08-05 20:00:00
Дата пометки : UTC 2012-08-05 20:00:00
Общее
Полное имя : C:\Users\AltzGamer\Videos\Легенды Дубляжа\05 Валентина Гришокина.mp4
Формат : MPEG-4
Профиль формата : QuickTime
Идентификатор кодека : qt
Размер файла : 218 Мбайт
Продолжительность : 13 м.
Общий поток : 2315 Кбит/сек
Дата кодирования : UTC 2012-08-13 20:00:00
Дата пометки : UTC 2012-08-13 20:00:00
Программа кодирования : Lavf53.10.0
Видео
Идентификатор : 1
Формат : AVC
Формат/Информация : Advanced Video Codec
Профиль формата : Baseline@L3.1
Параметр CABAC формата : Нет
Параметр ReFrames формата : 1 кадр
Параметр GOP формата : M=1, N=12
Идентификатор кодека : avc1
Идентификатор кодека/Информация : Advanced Video Coding
Продолжительность : 13 м.
Битрейт : 2184 Кбит/сек
Ширина : 640 пикселей
Высота : 360 пикселей
Соотношение сторон : 16:9
Режим частоты кадров : Постоянный
Частота кадров : 29,970 кадров/сек
Цветовое пространство : YUV
Субдискретизация насыщенности : 4:2:0
Битовая глубина : 8 бит
Тип развёртки : Прогрессивная
Бит/(Пиксели*Кадры) : 0.316
Размер потока : 205 Мбайт (94%)
Язык : English
Дата кодирования : UTC 2012-08-13 20:00:00
Дата пометки : UTC 2012-08-13 20:00:00
Аудио
Идентификатор : 2
Формат : AAC
Формат/Информация : Advanced Audio Codec
Профиль формата : LC
Идентификатор кодека : 40
Продолжительность : 13 м.
Вид битрейта : Постоянный
Битрейт : 127 Кбит/сек
Каналы : 2 канала
Расположение каналов : Front: L R
Частота : 48,0 КГц
Метод сжатия : С потерями
Размер потока : 12,0 Мбайт (6%)
Язык : English
Дата кодирования : UTC 2012-08-13 20:00:00
Дата пометки : UTC 2012-08-13 20:00:00
Общее
Полное имя : C:\Users\AltzGamer\Videos\Легенды Дубляжа\06 Валерий Соловьев.mp4
Формат : MPEG-4
Профиль формата : QuickTime
Идентификатор кодека : qt
Размер файла : 265 Мбайт
Продолжительность : 17 м.
Общий поток : 2124 Кбит/сек
Дата кодирования : UTC 2012-08-19 20:00:00
Дата пометки : UTC 2012-08-19 20:00:00
Программа кодирования : Lavf53.10.0
Видео
Идентификатор : 1
Формат : AVC
Формат/Информация : Advanced Video Codec
Профиль формата : Baseline@L3.1
Параметр CABAC формата : Нет
Параметр ReFrames формата : 1 кадр
Параметр GOP формата : M=1, N=12
Идентификатор кодека : avc1
Идентификатор кодека/Информация : Advanced Video Coding
Продолжительность : 17 м.
Битрейт : 1992 Кбит/сек
Ширина : 640 пикселей
Высота : 360 пикселей
Соотношение сторон : 16:9
Режим частоты кадров : Постоянный
Частота кадров : 29,970 кадров/сек
Цветовое пространство : YUV
Субдискретизация насыщенности : 4:2:0
Битовая глубина : 8 бит
Тип развёртки : Прогрессивная
Бит/(Пиксели*Кадры) : 0.288
Размер потока : 248 Мбайт (94%)
Язык : English
Дата кодирования : UTC 2012-08-19 20:00:00
Дата пометки : UTC 2012-08-19 20:00:00
Аудио
Идентификатор : 2
Формат : AAC
Формат/Информация : Advanced Audio Codec
Профиль формата : LC
Идентификатор кодека : 40
Продолжительность : 17 м.
Вид битрейта : Постоянный
Битрейт : 128 Кбит/сек
Каналы : 2 канала
Расположение каналов : Front: L R
Частота : 48,0 КГц
Метод сжатия : С потерями
Размер потока : 15,9 Мбайт (6%)
Язык : English
Дата кодирования : UTC 2012-08-19 20:00:00
Дата пометки : UTC 2012-08-19 20:00:00
Общее
Полное имя : C:\Users\AltzGamer\Videos\Легенды Дубляжа\07.1 Владимир Еремин.mp4
Формат : MPEG-4
Профиль формата : QuickTime
Идентификатор кодека : qt
Размер файла : 238 Мбайт
Продолжительность : 15 м.
Общий поток : 2120 Кбит/сек
Дата кодирования : UTC 2012-08-28 20:00:00
Дата пометки : UTC 2012-08-28 20:00:00
Программа кодирования : Lavf53.10.0
Видео
Идентификатор : 1
Формат : AVC
Формат/Информация : Advanced Video Codec
Профиль формата : Baseline@L3.1
Параметр CABAC формата : Нет
Параметр ReFrames формата : 1 кадр
Параметр GOP формата : M=1, N=12
Идентификатор кодека : avc1
Идентификатор кодека/Информация : Advanced Video Coding
Продолжительность : 15 м.
Битрейт : 1989 Кбит/сек
Ширина : 640 пикселей
Высота : 360 пикселей
Соотношение сторон : 16:9
Режим частоты кадров : Постоянный
Частота кадров : 29,970 кадров/сек
Цветовое пространство : YUV
Субдискретизация насыщенности : 4:2:0
Битовая глубина : 8 бит
Тип развёртки : Прогрессивная
Бит/(Пиксели*Кадры) : 0.288
Размер потока : 223 Мбайт (94%)
Язык : English
Дата кодирования : UTC 2012-08-28 20:00:00
Дата пометки : UTC 2012-08-28 20:00:00
Аудио
Идентификатор : 2
Формат : AAC
Формат/Информация : Advanced Audio Codec
Профиль формата : LC
Идентификатор кодека : 40
Продолжительность : 15 м.
Вид битрейта : Постоянный
Битрейт : 128 Кбит/сек
Каналы : 2 канала
Расположение каналов : Front: L R
Частота : 48,0 КГц
Метод сжатия : С потерями
Размер потока : 14,3 Мбайт (6%)
Язык : English
Дата кодирования : UTC 2012-08-28 20:00:00
Дата пометки : UTC 2012-08-28 20:00:00
Общее
Полное имя : C:\Users\AltzGamer\Videos\Легенды Дубляжа\07.2 Владимир Еремин.mp4
Формат : MPEG-4
Профиль формата : QuickTime
Идентификатор кодека : qt
Размер файла : 151 Мбайт
Продолжительность : 10 м.
Общий поток : 2113 Кбит/сек
Дата кодирования : UTC 2012-09-03 20:00:00
Дата пометки : UTC 2012-09-03 20:00:00
Программа кодирования : Lavf53.10.0
Видео
Идентификатор : 1
Формат : AVC
Формат/Информация : Advanced Video Codec
Профиль формата : Baseline@L3.1
Параметр CABAC формата : Нет
Параметр ReFrames формата : 1 кадр
Параметр GOP формата : M=1, N=12
Идентификатор кодека : avc1
Идентификатор кодека/Информация : Advanced Video Coding
Продолжительность : 10 м.
Битрейт : 1981 Кбит/сек
Ширина : 640 пикселей
Высота : 360 пикселей
Соотношение сторон : 16:9
Режим частоты кадров : Постоянный
Частота кадров : 29,970 кадров/сек
Цветовое пространство : YUV
Субдискретизация насыщенности : 4:2:0
Битовая глубина : 8 бит
Тип развёртки : Прогрессивная
Бит/(Пиксели*Кадры) : 0.287
Размер потока : 142 Мбайт (94%)
Язык : English
Дата кодирования : UTC 2012-09-03 20:00:00
Дата пометки : UTC 2012-09-03 20:00:00
Аудио
Идентификатор : 2
Формат : AAC
Формат/Информация : Advanced Audio Codec
Профиль формата : LC
Идентификатор кодека : 40
Продолжительность : 10 м.
Вид битрейта : Постоянный
Битрейт : 128 Кбит/сек
Каналы : 2 канала
Расположение каналов : Front: L R
Частота : 48,0 КГц
Метод сжатия : С потерями
Размер потока : 9,15 Мбайт (6%)
Язык : English
Дата кодирования : UTC 2012-09-03 20:00:00
Дата пометки : UTC 2012-09-03 20:00:00
Общее
Полное имя : C:\Users\AltzGamer\Videos\Легенды Дубляжа\08 Ирина Карташёва.mp4
Формат : MPEG-4
Профиль формата : QuickTime
Идентификатор кодека : qt
Размер файла : 268 Мбайт
Продолжительность : 17 м.
Общий поток : 2122 Кбит/сек
Дата кодирования : UTC 2012-09-10 20:00:00
Дата пометки : UTC 2012-09-10 20:00:00
Программа кодирования : Lavf53.10.0
Видео
Идентификатор : 1
Формат : AVC
Формат/Информация : Advanced Video Codec
Профиль формата : Baseline@L3.1
Параметр CABAC формата : Нет
Параметр ReFrames формата : 1 кадр
Параметр GOP формата : M=1, N=12
Идентификатор кодека : avc1
Идентификатор кодека/Информация : Advanced Video Coding
Продолжительность : 17 м.
Битрейт : 1990 Кбит/сек
Ширина : 640 пикселей
Высота : 360 пикселей
Соотношение сторон : 16:9
Режим частоты кадров : Постоянный
Частота кадров : 29,970 кадров/сек
Цветовое пространство : YUV
Субдискретизация насыщенности : 4:2:0
Битовая глубина : 8 бит
Тип развёртки : Прогрессивная
Бит/(Пиксели*Кадры) : 0.288
Размер потока : 252 Мбайт (94%)
Язык : English
Дата кодирования : UTC 2012-09-10 20:00:00
Дата пометки : UTC 2012-09-10 20:00:00
Аудио
Идентификатор : 2
Формат : AAC
Формат/Информация : Advanced Audio Codec
Профиль формата : LC
Идентификатор кодека : 40
Продолжительность : 17 м.
Вид битрейта : Постоянный
Битрейт : 127 Кбит/сек
Каналы : 2 канала
Расположение каналов : Front: L R
Частота : 48,0 КГц
Метод сжатия : С потерями
Размер потока : 16,1 Мбайт (6%)
Язык : English
Дата кодирования : UTC 2012-09-10 20:00:00
Дата пометки : UTC 2012-09-10 20:00:00
Общее
Полное имя : C:\Users\AltzGamer\Videos\Легенды Дубляжа\09 Михаил Вулих.mp4
Формат : MPEG-4
Профиль формата : QuickTime
Идентификатор кодека : qt
Размер файла : 263 Мбайт
Продолжительность : 17 м.
Общий поток : 2121 Кбит/сек
Дата кодирования : UTC 2012-09-18 20:00:00
Дата пометки : UTC 2012-09-18 20:00:00
Программа кодирования : Lavf53.10.0
Видео
Идентификатор : 1
Формат : AVC
Формат/Информация : Advanced Video Codec
Профиль формата : Baseline@L3.1
Параметр CABAC формата : Нет
Параметр ReFrames формата : 1 кадр
Параметр GOP формата : M=1, N=12
Идентификатор кодека : avc1
Идентификатор кодека/Информация : Advanced Video Coding
Продолжительность : 17 м.
Битрейт : 1989 Кбит/сек
Ширина : 640 пикселей
Высота : 360 пикселей
Соотношение сторон : 16:9
Режим частоты кадров : Постоянный
Частота кадров : 29,970 кадров/сек
Цветовое пространство : YUV
Субдискретизация насыщенности : 4:2:0
Битовая глубина : 8 бит
Тип развёртки : Прогрессивная
Бит/(Пиксели*Кадры) : 0.288
Размер потока : 247 Мбайт (94%)
Язык : English
Дата кодирования : UTC 2012-09-18 20:00:00
Дата пометки : UTC 2012-09-18 20:00:00
Аудио
Идентификатор : 2
Формат : AAC
Формат/Информация : Advanced Audio Codec
Профиль формата : LC
Идентификатор кодека : 40
Продолжительность : 17 м.
Вид битрейта : Постоянный
Битрейт : 128 Кбит/сек
Каналы : 2 канала
Расположение каналов : Front: L R
Частота : 48,0 КГц
Метод сжатия : С потерями
Размер потока : 15,8 Мбайт (6%)
Язык : English
Дата кодирования : UTC 2012-09-18 20:00:00
Дата пометки : UTC 2012-09-18 20:00:00
Общее
Полное имя : C:\Users\AltzGamer\Videos\Легенды Дубляжа\10.1 Владимир Антоник.mp4
Формат : MPEG-4
Профиль формата : QuickTime
Идентификатор кодека : qt
Размер файла : 198 Мбайт
Продолжительность : 13 м.
Общий поток : 2114 Кбит/сек
Дата кодирования : UTC 2012-09-25 20:00:00
Дата пометки : UTC 2012-09-25 20:00:00
Программа кодирования : Lavf53.10.0
Видео
Идентификатор : 1
Формат : AVC
Формат/Информация : Advanced Video Codec
Профиль формата : Baseline@L3.1
Параметр CABAC формата : Нет
Параметр ReFrames формата : 1 кадр
Параметр GOP формата : M=1, N=12
Идентификатор кодека : avc1
Идентификатор кодека/Информация : Advanced Video Coding
Продолжительность : 13 м.
Битрейт : 1983 Кбит/сек
Ширина : 640 пикселей
Высота : 360 пикселей
Соотношение сторон : 16:9
Режим частоты кадров : Постоянный
Частота кадров : 29,970 кадров/сек
Цветовое пространство : YUV
Субдискретизация насыщенности : 4:2:0
Битовая глубина : 8 бит
Тип развёртки : Прогрессивная
Бит/(Пиксели*Кадры) : 0.287
Размер потока : 185 Мбайт (94%)
Язык : English
Дата кодирования : UTC 2012-09-25 20:00:00
Дата пометки : UTC 2012-09-25 20:00:00
Аудио
Идентификатор : 2
Формат : AAC
Формат/Информация : Advanced Audio Codec
Профиль формата : LC
Идентификатор кодека : 40
Продолжительность : 13 м.
Вид битрейта : Постоянный
Битрейт : 128 Кбит/сек
Каналы : 2 канала
Расположение каналов : Front: L R
Частота : 48,0 КГц
Метод сжатия : С потерями
Размер потока : 11,9 Мбайт (6%)
Язык : English
Дата кодирования : UTC 2012-09-25 20:00:00
Дата пометки : UTC 2012-09-25 20:00:00
Общее
Полное имя : C:\Users\AltzGamer\Videos\Легенды Дубляжа\10.2 Владимир Антоник.mp4
Формат : MPEG-4
Профиль формата : QuickTime
Идентификатор кодека : qt
Размер файла : 209 Мбайт
Продолжительность : 13 м.
Общий поток : 2118 Кбит/сек
Дата кодирования : UTC 2012-10-01 20:00:00
Дата пометки : UTC 2012-10-01 20:00:00
Программа кодирования : Lavf53.10.0
Видео
Идентификатор : 1
Формат : AVC
Формат/Информация : Advanced Video Codec
Профиль формата : Baseline@L3.1
Параметр CABAC формата : Нет
Параметр ReFrames формата : 1 кадр
Параметр GOP формата : M=1, N=12
Идентификатор кодека : avc1
Идентификатор кодека/Информация : Advanced Video Coding
Продолжительность : 13 м.
Битрейт : 1986 Кбит/сек
Ширина : 640 пикселей
Высота : 360 пикселей
Соотношение сторон : 16:9
Режим частоты кадров : Постоянный
Частота кадров : 29,970 кадров/сек
Цветовое пространство : YUV
Субдискретизация насыщенности : 4:2:0
Битовая глубина : 8 бит
Тип развёртки : Прогрессивная
Бит/(Пиксели*Кадры) : 0.288
Размер потока : 196 Мбайт (94%)
Язык : English
Дата кодирования : UTC 2012-10-01 20:00:00
Дата пометки : UTC 2012-10-01 20:00:00
Аудио
Идентификатор : 2
Формат : AAC
Формат/Информация : Advanced Audio Codec
Профиль формата : LC
Идентификатор кодека : 40
Продолжительность : 13 м.
Вид битрейта : Постоянный
Битрейт : 128 Кбит/сек
Каналы : 2 канала
Расположение каналов : Front: L R
Частота : 48,0 КГц
Метод сжатия : С потерями
Размер потока : 12,6 Мбайт (6%)
Язык : English
Дата кодирования : UTC 2012-10-01 20:00:00
Дата пометки : UTC 2012-10-01 20:00:00
Общее
Полное имя : C:\Users\AltzGamer\Videos\Легенды Дубляжа\11 Владислав Пупков.mp4
Формат : MPEG-4
Профиль формата : QuickTime
Идентификатор кодека : qt
Размер файла : 219 Мбайт
Продолжительность : 14 м.
Общий поток : 2116 Кбит/сек
Дата кодирования : UTC 2012-10-08 20:00:00
Дата пометки : UTC 2012-10-08 20:00:00
Программа кодирования : Lavf53.10.0
Видео
Идентификатор : 1
Формат : AVC
Формат/Информация : Advanced Video Codec
Профиль формата : Baseline@L3.1
Параметр CABAC формата : Нет
Параметр ReFrames формата : 1 кадр
Параметр GOP формата : M=1, N=12
Идентификатор кодека : avc1
Идентификатор кодека/Информация : Advanced Video Coding
Продолжительность : 14 м.
Битрейт : 1984 Кбит/сек
Ширина : 640 пикселей
Высота : 360 пикселей
Соотношение сторон : 16:9
Режим частоты кадров : Постоянный
Частота кадров : 29,970 кадров/сек
Цветовое пространство : YUV
Субдискретизация насыщенности : 4:2:0
Битовая глубина : 8 бит
Тип развёртки : Прогрессивная
Бит/(Пиксели*Кадры) : 0.287
Размер потока : 206 Мбайт (94%)
Язык : English
Дата кодирования : UTC 2012-10-08 20:00:00
Дата пометки : UTC 2012-10-08 20:00:00
Аудио
Идентификатор : 2
Формат : AAC
Формат/Информация : Advanced Audio Codec
Профиль формата : LC
Идентификатор кодека : 40
Продолжительность : 14 м.
Вид битрейта : Постоянный
Битрейт : 128 Кбит/сек
Каналы : 2 канала
Расположение каналов : Front: L R
Частота : 48,0 КГц
Метод сжатия : С потерями
Размер потока : 13,2 Мбайт (6%)
Язык : English
Дата кодирования : UTC 2012-10-08 20:00:00
Дата пометки : UTC 2012-10-08 20:00:00
Общее
Полное имя : C:\Users\AltzGamer\Videos\Легенды Дубляжа\12 Алексей Сафонов.mp4
Формат : MPEG-4
Профиль формата : QuickTime
Идентификатор кодека : qt
Размер файла : 258 Мбайт
Продолжительность : 17 м.
Общий поток : 2122 Кбит/сек
Дата кодирования : UTC 2012-10-16 20:00:00
Дата пометки : UTC 2012-10-16 20:00:00
Программа кодирования : Lavf53.10.0
Видео
Идентификатор : 1
Формат : AVC
Формат/Информация : Advanced Video Codec
Профиль формата : Baseline@L3.1
Параметр CABAC формата : Нет
Параметр ReFrames формата : 1 кадр
Параметр GOP формата : M=1, N=12
Идентификатор кодека : avc1
Идентификатор кодека/Информация : Advanced Video Coding
Продолжительность : 16 м.
Битрейт : 1990 Кбит/сек
Ширина : 640 пикселей
Высота : 360 пикселей
Соотношение сторон : 16:9
Режим частоты кадров : Постоянный
Частота кадров : 29,970 кадров/сек
Цветовое пространство : YUV
Субдискретизация насыщенности : 4:2:0
Битовая глубина : 8 бит
Тип развёртки : Прогрессивная
Бит/(Пиксели*Кадры) : 0.288
Размер потока : 242 Мбайт (94%)
Язык : English
Дата кодирования : UTC 2012-10-16 20:00:00
Дата пометки : UTC 2012-10-16 20:00:00
Аудио
Идентификатор : 2
Формат : AAC
Формат/Информация : Advanced Audio Codec
Профиль формата : LC
Идентификатор кодека : 40
Продолжительность : 17 м.
Вид битрейта : Постоянный
Битрейт : 128 Кбит/сек
Каналы : 2 канала
Расположение каналов : Front: L R
Частота : 48,0 КГц
Метод сжатия : С потерями
Размер потока : 15,5 Мбайт (6%)
Язык : English
Дата кодирования : UTC 2012-10-16 20:00:00
Дата пометки : UTC 2012-10-16 20:00:00
Общее
Полное имя : C:\Users\AltzGamer\Videos\Легенды Дубляжа\13 Олег Дашкевич.mp4
Формат : MPEG-4
Профиль формата : QuickTime
Идентификатор кодека : qt
Размер файла : 261 Мбайт
Продолжительность : 17 м.
Общий поток : 2124 Кбит/сек
Дата кодирования : UTC 2012-10-23 20:00:00
Дата пометки : UTC 2012-10-23 20:00:00
Программа кодирования : Lavf53.10.0
Видео
Идентификатор : 1
Формат : AVC
Формат/Информация : Advanced Video Codec
Профиль формата : Baseline@L3.1
Параметр CABAC формата : Нет
Параметр ReFrames формата : 1 кадр
Параметр GOP формата : M=1, N=12
Идентификатор кодека : avc1
Идентификатор кодека/Информация : Advanced Video Coding
Продолжительность : 17 м.
Битрейт : 1993 Кбит/сек
Ширина : 640 пикселей
Высота : 360 пикселей
Соотношение сторон : 16:9
Режим частоты кадров : Постоянный
Частота кадров : 23,976 кадра/сек
Цветовое пространство : YUV
Субдискретизация насыщенности : 4:2:0
Битовая глубина : 8 бит
Тип развёртки : Прогрессивная
Бит/(Пиксели*Кадры) : 0.361
Размер потока : 245 Мбайт (94%)
Язык : English
Дата кодирования : UTC 2012-10-23 20:00:00
Дата пометки : UTC 2012-10-23 20:00:00
Аудио
Идентификатор : 2
Формат : AAC
Формат/Информация : Advanced Audio Codec
Профиль формата : LC
Идентификатор кодека : 40
Продолжительность : 17 м.
Вид битрейта : Постоянный
Битрейт : 128 Кбит/сек
Каналы : 2 канала
Расположение каналов : Front: L R
Частота : 48,0 КГц
Метод сжатия : С потерями
Размер потока : 15,7 Мбайт (6%)
Язык : English
Дата кодирования : UTC 2012-10-23 20:00:00
Дата пометки : UTC 2012-10-23 20:00:00
Общее
Полное имя : C:\Users\AltzGamer\Videos\Легенды Дубляжа\14.1 Игорь Ефимов.mp4
Формат : MPEG-4
Профиль формата : QuickTime
Идентификатор кодека : qt
Размер файла : 232 Мбайт
Продолжительность : 15 м.
Общий поток : 2125 Кбит/сек
Дата кодирования : UTC 2012-10-28 20:00:00
Дата пометки : UTC 2012-10-28 20:00:00
Программа кодирования : Lavf53.10.0
Видео
Идентификатор : 1
Формат : AVC
Формат/Информация : Advanced Video Codec
Профиль формата : Baseline@L3.1
Параметр CABAC формата : Нет
Параметр ReFrames формата : 1 кадр
Параметр GOP формата : M=1, N=12
Идентификатор кодека : avc1
Идентификатор кодека/Информация : Advanced Video Coding
Продолжительность : 15 м.
Битрейт : 1993 Кбит/сек
Ширина : 640 пикселей
Высота : 360 пикселей
Соотношение сторон : 16:9
Режим частоты кадров : Постоянный
Частота кадров : 29,970 кадров/сек
Цветовое пространство : YUV
Субдискретизация насыщенности : 4:2:0
Битовая глубина : 8 бит
Тип развёртки : Прогрессивная
Бит/(Пиксели*Кадры) : 0.289
Размер потока : 218 Мбайт (94%)
Язык : English
Дата кодирования : UTC 2012-10-28 20:00:00
Дата пометки : UTC 2012-10-28 20:00:00
Аудио
Идентификатор : 2
Формат : AAC
Формат/Информация : Advanced Audio Codec
Профиль формата : LC
Идентификатор кодека : 40
Продолжительность : 15 м.
Вид битрейта : Постоянный
Битрейт : 128 Кбит/сек
Каналы : 2 канала
Расположение каналов : Front: L R
Частота : 48,0 КГц
Метод сжатия : С потерями
Размер потока : 14,0 Мбайт (6%)
Язык : English
Дата кодирования : UTC 2012-10-28 20:00:00
Дата пометки : UTC 2012-10-28 20:00:00
Общее
Полное имя : C:\Users\AltzGamer\Videos\Легенды Дубляжа\14.2 Игорь Ефимов.mp4
Формат : MPEG-4
Профиль формата : QuickTime
Идентификатор кодека : qt
Размер файла : 471 Мбайт
Продолжительность : 15 м.
Режим общего битрейта : Переменный
Общий поток : 4125 Кбит/сек
Дата кодирования : UTC 2012-10-30 20:00:00
Дата пометки : UTC 2012-10-30 20:00:00
Программа кодирования : Lavf53.10.0
Видео
Идентификатор : 1
Формат : AVC
Формат/Информация : Advanced Video Codec
Профиль формата : Main@L3.0
Параметр CABAC формата : Да
Параметр ReFrames формата : 3 кадра
Идентификатор кодека : avc1
Идентификатор кодека/Информация : Advanced Video Coding
Продолжительность : 15 м.
Вид битрейта : Переменный
Битрейт : 3990 Кбит/сек
Максимальный битрейт : 5000 Кбит/сек
Ширина : 640 пикселей
Высота : 360 пикселей
Соотношение сторон : 16:9
Режим частоты кадров : Постоянный
Частота кадров : 29,970 кадров/сек
Стандарт вещания : NTSC
Цветовое пространство : YUV
Субдискретизация насыщенности : 4:2:0
Битовая глубина : 8 бит
Тип развёртки : Прогрессивная
Бит/(Пиксели*Кадры) : 0.578
Размер потока : 456 Мбайт (97%)
Язык : English
Дата кодирования : UTC 2012-10-30 20:00:00
Дата пометки : UTC 2012-10-30 20:00:00
Аудио
Идентификатор : 2
Формат : AAC
Формат/Информация : Advanced Audio Codec
Профиль формата : LC
Идентификатор кодека : 40
Продолжительность : 15 м.
Вид битрейта : Постоянный
Битрейт : 128 Кбит/сек
Каналы : 2 канала
Расположение каналов : Front: L R
Частота : 48,0 КГц
Метод сжатия : С потерями
Размер потока : 14,6 Мбайт (3%)
Язык : English
Дата кодирования : UTC 2012-10-30 20:00:00
Дата пометки : UTC 2012-10-30 20:00:00
Общее
Полное имя : C:\Users\AltzGamer\Videos\Легенды Дубляжа\15 Сергей Паршин.mp4
Формат : MPEG-4
Профиль формата : QuickTime
Идентификатор кодека : qt
Размер файла : 498 Мбайт
Продолжительность : 15 м.
Режим общего битрейта : Переменный
Общий поток : 4474 Кбит/сек
Дата кодирования : UTC 2012-10-31 20:00:00
Дата пометки : UTC 2012-10-31 20:00:00
Программа кодирования : Lavf53.10.0
Видео
Идентификатор : 1
Формат : AVC
Формат/Информация : Advanced Video Codec
Профиль формата : Main@L3.0
Параметр CABAC формата : Да
Параметр ReFrames формата : 3 кадра
Идентификатор кодека : avc1
Идентификатор кодека/Информация : Advanced Video Coding
Продолжительность : 15 м.
Вид битрейта : Переменный
Битрейт : 4339 Кбит/сек
Максимальный битрейт : 5000 Кбит/сек
Ширина : 640 пикселей
Высота : 360 пикселей
Соотношение сторон : 16:9
Режим частоты кадров : Постоянный
Частота кадров : 29,970 кадров/сек
Стандарт вещания : NTSC
Цветовое пространство : YUV
Субдискретизация насыщенности : 4:2:0
Битовая глубина : 8 бит
Тип развёртки : Прогрессивная
Бит/(Пиксели*Кадры) : 0.628
Размер потока : 483 Мбайт (97%)
Язык : English
Дата кодирования : UTC 2012-10-31 20:00:00
Дата пометки : UTC 2012-10-31 20:00:00
Аудио
Идентификатор : 2
Формат : AAC
Формат/Информация : Advanced Audio Codec
Профиль формата : LC
Идентификатор кодека : 40
Продолжительность : 15 м.
Вид битрейта : Постоянный
Битрейт : 128 Кбит/сек
Каналы : 2 канала
Расположение каналов : Front: L R
Частота : 48,0 КГц
Метод сжатия : С потерями
Размер потока : 14,2 Мбайт (3%)
Язык : English
Дата кодирования : UTC 2012-10-31 20:00:00
Дата пометки : UTC 2012-10-31 20:00:00
Общее
Полное имя : C:\Users\AltzGamer\Videos\Легенды Дубляжа\16 Тимофей Спивак.mp4
Формат : MPEG-4
Профиль формата : QuickTime
Идентификатор кодека : qt
Размер файла : 486 Мбайт
Продолжительность : 15 м.
Режим общего битрейта : Переменный
Общий поток : 4462 Кбит/сек
Дата кодирования : UTC 2012-11-11 20:00:00
Дата пометки : UTC 2012-11-11 20:00:00
Программа кодирования : Lavf53.10.0
Видео
Идентификатор : 1
Формат : AVC
Формат/Информация : Advanced Video Codec
Профиль формата : Main@L3.0
Параметр CABAC формата : Да
Параметр ReFrames формата : 3 кадра
Идентификатор кодека : avc1
Идентификатор кодека/Информация : Advanced Video Coding
Продолжительность : 15 м.
Вид битрейта : Переменный
Битрейт : 4327 Кбит/сек
Максимальный битрейт : 5000 Кбит/сек
Ширина : 640 пикселей
Высота : 360 пикселей
Соотношение сторон : 16:9
Режим частоты кадров : Постоянный
Частота кадров : 29,970 кадров/сек
Стандарт вещания : NTSC
Цветовое пространство : YUV
Субдискретизация насыщенности : 4:2:0
Битовая глубина : 8 бит
Тип развёртки : Прогрессивная
Бит/(Пиксели*Кадры) : 0.627
Размер потока : 471 Мбайт (97%)
Язык : English
Дата кодирования : UTC 2012-11-11 20:00:00
Дата пометки : UTC 2012-11-11 20:00:00
Аудио
Идентификатор : 2
Формат : AAC
Формат/Информация : Advanced Audio Codec
Профиль формата : LC
Идентификатор кодека : 40
Продолжительность : 15 м.
Вид битрейта : Постоянный
Битрейт : 128 Кбит/сек
Каналы : 2 канала
Расположение каналов : Front: L R
Частота : 48,0 КГц
Метод сжатия : С потерями
Размер потока : 13,9 Мбайт (3%)
Язык : English
Дата кодирования : UTC 2012-11-11 20:00:00
Дата пометки : UTC 2012-11-11 20:00:00
Общее
Полное имя : C:\Users\AltzGamer\Videos\Легенды Дубляжа\17 Олег Куликович.mp4
Формат : MPEG-4
Профиль формата : QuickTime
Идентификатор кодека : qt
Размер файла : 280 Мбайт
Продолжительность : 18 м.
Общий поток : 2124 Кбит/сек
Дата кодирования : UTC 2012-11-19 20:00:00
Дата пометки : UTC 2012-11-19 20:00:00
Программа кодирования : Lavf53.10.0
Видео
Идентификатор : 1
Формат : AVC
Формат/Информация : Advanced Video Codec
Профиль формата : Baseline@L3.1
Параметр CABAC формата : Нет
Параметр ReFrames формата : 1 кадр
Параметр GOP формата : M=1, N=12
Идентификатор кодека : avc1
Идентификатор кодека/Информация : Advanced Video Coding
Продолжительность : 18 м.
Битрейт : 1991 Кбит/сек
Ширина : 640 пикселей
Высота : 360 пикселей
Соотношение сторон : 16:9
Режим частоты кадров : Постоянный
Частота кадров : 29,970 кадров/сек
Цветовое пространство : YUV
Субдискретизация насыщенности : 4:2:0
Битовая глубина : 8 бит
Тип развёртки : Прогрессивная
Бит/(Пиксели*Кадры) : 0.288
Размер потока : 262 Мбайт (94%)
Язык : English
Дата кодирования : UTC 2012-11-19 20:00:00
Дата пометки : UTC 2012-11-19 20:00:00
Аудио
Идентификатор : 2
Формат : AAC
Формат/Информация : Advanced Audio Codec
Профиль формата : LC
Идентификатор кодека : 40
Продолжительность : 18 м.
Вид битрейта : Постоянный
Битрейт : 128 Кбит/сек
Каналы : 2 канала
Расположение каналов : Front: L R
Частота : 48,0 КГц
Метод сжатия : С потерями
Размер потока : 16,8 Мбайт (6%)
Язык : English
Дата кодирования : UTC 2012-11-19 20:00:00
Дата пометки : UTC 2012-11-19 20:00:00
Общее
Полное имя : C:\Users\AltzGamer\Videos\Легенды Дубляжа\18 Галина Чигинская.mp4
Формат : MPEG-4
Профиль формата : QuickTime
Идентификатор кодека : qt
Размер файла : 246 Мбайт
Продолжительность : 16 м.
Общий поток : 2120 Кбит/сек
Дата кодирования : UTC 2012-11-26 20:00:00
Дата пометки : UTC 2012-11-26 20:00:00
Программа кодирования : Lavf53.10.0
Видео
Идентификатор : 1
Формат : AVC
Формат/Информация : Advanced Video Codec
Профиль формата : Baseline@L3.1
Параметр CABAC формата : Нет
Параметр ReFrames формата : 1 кадр
Параметр GOP формата : M=1, N=12
Идентификатор кодека : avc1
Идентификатор кодека/Информация : Advanced Video Coding
Продолжительность : 16 м.
Битрейт : 1988 Кбит/сек
Ширина : 640 пикселей
Высота : 360 пикселей
Соотношение сторон : 16:9
Режим частоты кадров : Постоянный
Частота кадров : 29,970 кадров/сек
Цветовое пространство : YUV
Субдискретизация насыщенности : 4:2:0
Битовая глубина : 8 бит
Тип развёртки : Прогрессивная
Бит/(Пиксели*Кадры) : 0.288
Размер потока : 231 Мбайт (94%)
Язык : English
Дата кодирования : UTC 2012-11-26 20:00:00
Дата пометки : UTC 2012-11-26 20:00:00
Аудио
Идентификатор : 2
Формат : AAC
Формат/Информация : Advanced Audio Codec
Профиль формата : LC
Идентификатор кодека : 40
Продолжительность : 16 м.
Вид битрейта : Постоянный
Битрейт : 128 Кбит/сек
Каналы : 2 канала
Расположение каналов : Front: L R
Частота : 48,0 КГц
Метод сжатия : С потерями
Размер потока : 14,8 Мбайт (6%)
Язык : English
Дата кодирования : UTC 2012-11-26 20:00:00
Дата пометки : UTC 2012-11-26 20:00:00
Общее
Полное имя : C:\Users\AltzGamer\Videos\Легенды Дубляжа\19 Анастасия Гиренкова.mp4
Формат : MPEG-4
Профиль формата : QuickTime
Идентификатор кодека : qt
Размер файла : 286 Мбайт
Продолжительность : 18 м.
Общий поток : 2124 Кбит/сек
Дата кодирования : UTC 2012-12-03 20:00:00
Дата пометки : UTC 2012-12-03 20:00:00
Программа кодирования : Lavf53.10.0
Видео
Идентификатор : 1
Формат : AVC
Формат/Информация : Advanced Video Codec
Профиль формата : Baseline@L3.1
Параметр CABAC формата : Нет
Параметр ReFrames формата : 1 кадр
Параметр GOP формата : M=1, N=12
Идентификатор кодека : avc1
Идентификатор кодека/Информация : Advanced Video Coding
Продолжительность : 18 м.
Битрейт : 1992 Кбит/сек
Ширина : 640 пикселей
Высота : 360 пикселей
Соотношение сторон : 16:9
Режим частоты кадров : Постоянный
Частота кадров : 29,970 кадров/сек
Цветовое пространство : YUV
Субдискретизация насыщенности : 4:2:0
Битовая глубина : 8 бит
Тип развёртки : Прогрессивная
Бит/(Пиксели*Кадры) : 0.289
Размер потока : 269 Мбайт (94%)
Язык : English
Дата кодирования : UTC 2012-12-03 20:00:00
Дата пометки : UTC 2012-12-03 20:00:00
Аудио
Идентификатор : 2
Формат : AAC
Формат/Информация : Advanced Audio Codec
Профиль формата : LC
Идентификатор кодека : 40
Продолжительность : 18 м.
Вид битрейта : Постоянный
Битрейт : 128 Кбит/сек
Каналы : 2 канала
Расположение каналов : Front: L R
Частота : 48,0 КГц
Метод сжатия : С потерями
Размер потока : 17,2 Мбайт (6%)
Язык : English
Дата кодирования : UTC 2012-12-03 20:00:00
Дата пометки : UTC 2012-12-03 20:00:00
Общее
Полное имя : C:\Users\AltzGamer\Videos\Легенды Дубляжа\20.1 Виктор Костецкий.mp4
Формат : MPEG-4
Профиль формата : QuickTime
Идентификатор кодека : qt
Размер файла : 200 Мбайт
Продолжительность : 13 м.
Общий поток : 2118 Кбит/сек
Дата кодирования : UTC 2012-12-10 20:00:00
Дата пометки : UTC 2012-12-10 20:00:00
Программа кодирования : Lavf53.10.0
Видео
Идентификатор : 1
Формат : AVC
Формат/Информация : Advanced Video Codec
Профиль формата : Baseline@L3.1
Параметр CABAC формата : Нет
Параметр ReFrames формата : 1 кадр
Параметр GOP формата : M=1, N=12
Идентификатор кодека : avc1
Идентификатор кодека/Информация : Advanced Video Coding
Продолжительность : 13 м.
Битрейт : 1986 Кбит/сек
Ширина : 640 пикселей
Высота : 360 пикселей
Соотношение сторон : 16:9
Режим частоты кадров : Постоянный
Частота кадров : 29,970 кадров/сек
Цветовое пространство : YUV
Субдискретизация насыщенности : 4:2:0
Битовая глубина : 8 бит
Тип развёртки : Прогрессивная
Бит/(Пиксели*Кадры) : 0.288
Размер потока : 187 Мбайт (94%)
Язык : English
Дата кодирования : UTC 2012-12-10 20:00:00
Дата пометки : UTC 2012-12-10 20:00:00
Аудио
Идентификатор : 2
Формат : AAC
Формат/Информация : Advanced Audio Codec
Профиль формата : LC
Идентификатор кодека : 40
Продолжительность : 13 м.
Вид битрейта : Постоянный
Битрейт : 128 Кбит/сек
Каналы : 2 канала
Расположение каналов : Front: L R
Частота : 48,0 КГц
Метод сжатия : С потерями
Размер потока : 12,1 Мбайт (6%)
Язык : English
Дата кодирования : UTC 2012-12-10 20:00:00
Дата пометки : UTC 2012-12-10 20:00:00
Общее
Полное имя : C:\Users\AltzGamer\Videos\Легенды Дубляжа\20.2 Виктор Костецкий.mp4
Формат : MPEG-4
Профиль формата : QuickTime
Идентификатор кодека : qt
Размер файла : 220 Мбайт
Продолжительность : 14 м.
Общий поток : 2117 Кбит/сек
Дата кодирования : UTC 2012-12-19 20:00:00
Дата пометки : UTC 2012-12-19 20:00:00
Программа кодирования : Lavf53.10.0
Видео
Идентификатор : 1
Формат : AVC
Формат/Информация : Advanced Video Codec
Профиль формата : Baseline@L3.1
Параметр CABAC формата : Нет
Параметр ReFrames формата : 1 кадр
Параметр GOP формата : M=1, N=12
Идентификатор кодека : avc1
Идентификатор кодека/Информация : Advanced Video Coding
Продолжительность : 14 м.
Битрейт : 1986 Кбит/сек
Ширина : 640 пикселей
Высота : 360 пикселей
Соотношение сторон : 16:9
Режим частоты кадров : Постоянный
Частота кадров : 29,970 кадров/сек
Цветовое пространство : YUV
Субдискретизация насыщенности : 4:2:0
Битовая глубина : 8 бит
Тип развёртки : Прогрессивная
Бит/(Пиксели*Кадры) : 0.288
Размер потока : 207 Мбайт (94%)
Язык : English
Дата кодирования : UTC 2012-12-19 20:00:00
Дата пометки : UTC 2012-12-19 20:00:00
Аудио
Идентификатор : 2
Формат : AAC
Формат/Информация : Advanced Audio Codec
Профиль формата : LC
Идентификатор кодека : 40
Продолжительность : 14 м.
Вид битрейта : Постоянный
Битрейт : 128 Кбит/сек
Каналы : 2 канала
Расположение каналов : Front: L R
Частота : 48,0 КГц
Метод сжатия : С потерями
Размер потока : 13,3 Мбайт (6%)
Язык : English
Дата кодирования : UTC 2012-12-19 20:00:00
Дата пометки : UTC 2012-12-19 20:00:00
Общее
Полное имя : C:\Users\AltzGamer\Videos\Легенды Дубляжа\21 Юрий Швырев.mp4
Формат : MPEG-4
Профиль формата : QuickTime
Идентификатор кодека : qt
Размер файла : 230 Мбайт
Продолжительность : 15 м.
Общий поток : 2122 Кбит/сек
Дата кодирования : UTC 2012-12-24 20:00:00
Дата пометки : UTC 2012-12-24 20:00:00
Программа кодирования : Lavf53.10.0
Видео
Идентификатор : 1
Формат : AVC
Формат/Информация : Advanced Video Codec
Профиль формата : Baseline@L3.1
Параметр CABAC формата : Нет
Параметр ReFrames формата : 1 кадр
Параметр GOP формата : M=1, N=12
Идентификатор кодека : avc1
Идентификатор кодека/Информация : Advanced Video Coding
Продолжительность : 15 м.
Битрейт : 1990 Кбит/сек
Ширина : 640 пикселей
Высота : 360 пикселей
Соотношение сторон : 16:9
Режим частоты кадров : Постоянный
Частота кадров : 29,970 кадров/сек
Цветовое пространство : YUV
Субдискретизация насыщенности : 4:2:0
Битовая глубина : 8 бит
Тип развёртки : Прогрессивная
Бит/(Пиксели*Кадры) : 0.288
Размер потока : 215 Мбайт (94%)
Язык : English
Дата кодирования : UTC 2012-12-24 20:00:00
Дата пометки : UTC 2012-12-24 20:00:00
Аудио
Идентификатор : 2
Формат : AAC
Формат/Информация : Advanced Audio Codec
Профиль формата : LC
Идентификатор кодека : 40
Продолжительность : 15 м.
Вид битрейта : Постоянный
Битрейт : 128 Кбит/сек
Каналы : 2 канала
Расположение каналов : Front: L R
Частота : 48,0 КГц
Метод сжатия : С потерями
Размер потока : 13,8 Мбайт (6%)
Язык : English
Дата кодирования : UTC 2012-12-24 20:00:00
Дата пометки : UTC 2012-12-24 20:00:00
Общее
Полное имя : C:\Users\AltzGamer\Videos\Легенды Дубляжа\22 Наталья Казначеева.mp4
Формат : MPEG-4
Профиль формата : QuickTime
Идентификатор кодека : qt
Размер файла : 246 Мбайт
Продолжительность : 16 м.
Общий поток : 2119 Кбит/сек
Дата кодирования : UTC 2013-01-08 20:00:00
Дата пометки : UTC 2013-01-08 20:00:00
Программа кодирования : Lavf53.10.0
Видео
Идентификатор : 1
Формат : AVC
Формат/Информация : Advanced Video Codec
Профиль формата : Baseline@L3.1
Параметр CABAC формата : Нет
Параметр ReFrames формата : 1 кадр
Параметр GOP формата : M=1, N=12
Идентификатор кодека : avc1
Идентификатор кодека/Информация : Advanced Video Coding
Продолжительность : 16 м.
Битрейт : 1987 Кбит/сек
Ширина : 640 пикселей
Высота : 360 пикселей
Соотношение сторон : 16:9
Режим частоты кадров : Постоянный
Частота кадров : 29,970 кадров/сек
Цветовое пространство : YUV
Субдискретизация насыщенности : 4:2:0
Битовая глубина : 8 бит
Тип развёртки : Прогрессивная
Бит/(Пиксели*Кадры) : 0.288
Размер потока : 231 Мбайт (94%)
Язык : English
Дата кодирования : UTC 2013-01-08 20:00:00
Дата пометки : UTC 2013-01-08 20:00:00
Аудио
Идентификатор : 2
Формат : AAC
Формат/Информация : Advanced Audio Codec
Профиль формата : LC
Идентификатор кодека : 40
Продолжительность : 16 м.
Вид битрейта : Постоянный
Битрейт : 127 Кбит/сек
Каналы : 2 канала
Расположение каналов : Front: L R
Частота : 48,0 КГц
Метод сжатия : С потерями
Размер потока : 14,8 Мбайт (6%)
Язык : English
Дата кодирования : UTC 2013-01-08 20:00:00
Дата пометки : UTC 2013-01-08 20:00:00
Общее
Полное имя : C:\Users\AltzGamer\Videos\Легенды Дубляжа\23.1 Ярослава Турылёва.mp4
Формат : MPEG-4
Профиль формата : QuickTime
Идентификатор кодека : qt
Размер файла : 251 Мбайт
Продолжительность : 16 м.
Общий поток : 2118 Кбит/сек
Дата кодирования : UTC 2013-01-15 20:00:00
Дата пометки : UTC 2013-01-15 20:00:00
Программа кодирования : Lavf53.10.0
Видео
Идентификатор : 1
Формат : AVC
Формат/Информация : Advanced Video Codec
Профиль формата : Baseline@L3.1
Параметр CABAC формата : Нет
Параметр ReFrames формата : 1 кадр
Параметр GOP формата : M=1, N=12
Идентификатор кодека : avc1
Идентификатор кодека/Информация : Advanced Video Coding
Продолжительность : 16 м.
Битрейт : 1986 Кбит/сек
Ширина : 640 пикселей
Высота : 360 пикселей
Соотношение сторон : 16:9
Режим частоты кадров : Постоянный
Частота кадров : 29,970 кадров/сек
Цветовое пространство : YUV
Субдискретизация насыщенности : 4:2:0
Битовая глубина : 8 бит
Тип развёртки : Прогрессивная
Бит/(Пиксели*Кадры) : 0.288
Размер потока : 235 Мбайт (94%)
Язык : English
Дата кодирования : UTC 2013-01-15 20:00:00
Дата пометки : UTC 2013-01-15 20:00:00
Аудио
Идентификатор : 2
Формат : AAC
Формат/Информация : Advanced Audio Codec
Профиль формата : LC
Идентификатор кодека : 40
Продолжительность : 16 м.
Вид битрейта : Постоянный
Битрейт : 128 Кбит/сек
Каналы : 2 канала
Расположение каналов : Front: L R
Частота : 48,0 КГц
Метод сжатия : С потерями
Размер потока : 15,1 Мбайт (6%)
Язык : English
Дата кодирования : UTC 2013-01-15 20:00:00
Дата пометки : UTC 2013-01-15 20:00:00
Общее
Полное имя : C:\Users\AltzGamer\Videos\Легенды Дубляжа\23.2 Ярослава Турылёва.mp4
Формат : MPEG-4
Профиль формата : QuickTime
Идентификатор кодека : qt
Размер файла : 278 Мбайт
Продолжительность : 18 м.
Общий поток : 2120 Кбит/сек
Дата кодирования : UTC 2013-01-22 20:00:00
Дата пометки : UTC 2013-01-22 20:00:00
Программа кодирования : Lavf53.10.0
Видео
Идентификатор : 1
Формат : AVC
Формат/Информация : Advanced Video Codec
Профиль формата : Baseline@L3.1
Параметр CABAC формата : Нет
Параметр ReFrames формата : 1 кадр
Параметр GOP формата : M=1, N=12
Идентификатор кодека : avc1
Идентификатор кодека/Информация : Advanced Video Coding
Продолжительность : 18 м.
Битрейт : 1988 Кбит/сек
Ширина : 640 пикселей
Высота : 360 пикселей
Соотношение сторон : 16:9
Режим частоты кадров : Постоянный
Частота кадров : 29,970 кадров/сек
Цветовое пространство : YUV
Субдискретизация насыщенности : 4:2:0
Битовая глубина : 8 бит
Тип развёртки : Прогрессивная
Бит/(Пиксели*Кадры) : 0.288
Размер потока : 260 Мбайт (94%)
Язык : English
Дата кодирования : UTC 2013-01-22 20:00:00
Дата пометки : UTC 2013-01-22 20:00:00
Аудио
Идентификатор : 2
Формат : AAC
Формат/Информация : Advanced Audio Codec
Профиль формата : LC
Идентификатор кодека : 40
Продолжительность : 18 м.
Вид битрейта : Постоянный
Битрейт : 128 Кбит/сек
Каналы : 2 канала
Расположение каналов : Front: L R
Частота : 48,0 КГц
Метод сжатия : С потерями
Размер потока : 16,7 Мбайт (6%)
Язык : English
Дата кодирования : UTC 2013-01-22 20:00:00
Дата пометки : UTC 2013-01-22 20:00:00
Общее
Полное имя : C:\Users\AltzGamer\Videos\Легенды Дубляжа\23.3 Ярослава Турылёва.mp4
Формат : MPEG-4
Профиль формата : QuickTime
Идентификатор кодека : qt
Размер файла : 250 Мбайт
Продолжительность : 16 м.
Режим общего битрейта : Переменный
Общий поток : 2122 Кбит/сек
Дата кодирования : UTC 2013-01-29 20:00:00
Дата пометки : UTC 2013-01-29 20:00:00
Программа кодирования : Lavf53.10.0
Видео
Идентификатор : 1
Формат : AVC
Формат/Информация : Advanced Video Codec
Профиль формата : Baseline@L3.1
Параметр CABAC формата : Нет
Параметр ReFrames формата : 1 кадр
Параметр GOP формата : M=1, N=12
Идентификатор кодека : avc1
Идентификатор кодека/Информация : Advanced Video Coding
Продолжительность : 16 м.
Битрейт : 1990 Кбит/сек
Ширина : 640 пикселей
Высота : 360 пикселей
Соотношение сторон : 16:9
Режим частоты кадров : Постоянный
Частота кадров : 29,970 кадров/сек
Цветовое пространство : YUV
Субдискретизация насыщенности : 4:2:0
Битовая глубина : 8 бит
Тип развёртки : Прогрессивная
Бит/(Пиксели*Кадры) : 0.288
Размер потока : 235 Мбайт (94%)
Язык : English
Дата кодирования : UTC 2013-01-29 20:00:00
Дата пометки : UTC 2013-01-29 20:00:00
Аудио
Идентификатор : 2
Формат : AAC
Формат/Информация : Advanced Audio Codec
Профиль формата : LC
Идентификатор кодека : 40
Продолжительность : 16 м.
Вид битрейта : Переменный
Битрейт : 128 Кбит/сек
Каналы : 2 канала
Расположение каналов : Front: L R
Частота : 48,0 КГц
Метод сжатия : С потерями
Размер потока : 15,0 Мбайт (6%)
Язык : English
Дата кодирования : UTC 2013-01-29 20:00:00
Дата пометки : UTC 2013-01-29 20:00:00
Общее
Полное имя : C:\Users\AltzGamer\Videos\Легенды Дубляжа\23.4 Ярослава Турылёва.mp4
Формат : MPEG-4
Профиль формата : QuickTime
Идентификатор кодека : qt
Размер файла : 257 Мбайт
Продолжительность : 16 м.
Общий поток : 2119 Кбит/сек
Дата кодирования : UTC 2013-02-05 20:00:00
Дата пометки : UTC 2013-02-05 20:00:00
Программа кодирования : Lavf53.10.0
Видео
Идентификатор : 1
Формат : AVC
Формат/Информация : Advanced Video Codec
Профиль формата : Baseline@L3.1
Параметр CABAC формата : Нет
Параметр ReFrames формата : 1 кадр
Параметр GOP формата : M=1, N=12
Идентификатор кодека : avc1
Идентификатор кодека/Информация : Advanced Video Coding
Продолжительность : 16 м.
Битрейт : 1987 Кбит/сек
Ширина : 640 пикселей
Высота : 360 пикселей
Соотношение сторон : 16:9
Режим частоты кадров : Постоянный
Частота кадров : 29,970 кадров/сек
Цветовое пространство : YUV
Субдискретизация насыщенности : 4:2:0
Битовая глубина : 8 бит
Тип развёртки : Прогрессивная
Бит/(Пиксели*Кадры) : 0.288
Размер потока : 241 Мбайт (94%)
Язык : English
Дата кодирования : UTC 2013-02-05 20:00:00
Дата пометки : UTC 2013-02-05 20:00:00
Аудио
Идентификатор : 2
Формат : AAC
Формат/Информация : Advanced Audio Codec
Профиль формата : LC
Идентификатор кодека : 40
Продолжительность : 16 м.
Вид битрейта : Постоянный
Битрейт : 128 Кбит/сек
Каналы : 2 канала
Расположение каналов : Front: L R
Частота : 48,0 КГц
Метод сжатия : С потерями
Размер потока : 15,5 Мбайт (6%)
Язык : English
Дата кодирования : UTC 2013-02-05 20:00:00
Дата пометки : UTC 2013-02-05 20:00:00
Общее
Полное имя : C:\Users\AltzGamer\Videos\Легенды Дубляжа\24 Виталий Дорошенко.mp4
Формат : MPEG-4
Профиль формата : QuickTime
Идентификатор кодека : qt
Размер файла : 204 Мбайт
Продолжительность : 13 м.
Общий поток : 2119 Кбит/сек
Дата кодирования : UTC 2013-02-13 20:00:00
Дата пометки : UTC 2013-02-13 20:00:00
Программа кодирования : Lavf53.10.0
Видео
Идентификатор : 1
Формат : AVC
Формат/Информация : Advanced Video Codec
Профиль формата : Baseline@L3.1
Параметр CABAC формата : Нет
Параметр ReFrames формата : 1 кадр
Параметр GOP формата : M=1, N=12
Идентификатор кодека : avc1
Идентификатор кодека/Информация : Advanced Video Coding
Продолжительность : 13 м.
Битрейт : 1988 Кбит/сек
Ширина : 640 пикселей
Высота : 360 пикселей
Соотношение сторон : 16:9
Режим частоты кадров : Постоянный
Частота кадров : 29,970 кадров/сек
Цветовое пространство : YUV
Субдискретизация насыщенности : 4:2:0
Битовая глубина : 8 бит
Тип развёртки : Прогрессивная
Бит/(Пиксели*Кадры) : 0.288
Размер потока : 191 Мбайт (94%)
Язык : English
Дата кодирования : UTC 2013-02-13 20:00:00
Дата пометки : UTC 2013-02-13 20:00:00
Аудио
Идентификатор : 2
Формат : AAC
Формат/Информация : Advanced Audio Codec
Профиль формата : LC
Идентификатор кодека : 40
Продолжительность : 13 м.
Вид битрейта : Постоянный
Битрейт : 128 Кбит/сек
Каналы : 2 канала
Расположение каналов : Front: L R
Частота : 48,0 КГц
Метод сжатия : С потерями
Размер потока : 12,3 Мбайт (6%)
Язык : English
Дата кодирования : UTC 2013-02-13 20:00:00
Дата пометки : UTC 2013-02-13 20:00:00
Общее
Полное имя : C:\Users\AltzGamer\Videos\Легенды Дубляжа\25 Ольга Гобзева.mp4
Формат : MPEG-4
Профиль формата : QuickTime
Идентификатор кодека : qt
Размер файла : 221 Мбайт
Продолжительность : 14 м.
Общий поток : 2115 Кбит/сек
Дата кодирования : UTC 2013-02-18 20:00:00
Дата пометки : UTC 2013-02-18 20:00:00
Программа кодирования : Lavf53.10.0
Видео
Идентификатор : 1
Формат : AVC
Формат/Информация : Advanced Video Codec
Профиль формата : Baseline@L3.1
Параметр CABAC формата : Нет
Параметр ReFrames формата : 1 кадр
Параметр GOP формата : M=1, N=12
Идентификатор кодека : avc1
Идентификатор кодека/Информация : Advanced Video Coding
Продолжительность : 14 м.
Битрейт : 1983 Кбит/сек
Ширина : 640 пикселей
Высота : 360 пикселей
Соотношение сторон : 16:9
Режим частоты кадров : Постоянный
Частота кадров : 29,970 кадров/сек
Цветовое пространство : YUV
Субдискретизация насыщенности : 4:2:0
Битовая глубина : 8 бит
Тип развёртки : Прогрессивная
Бит/(Пиксели*Кадры) : 0.287
Размер потока : 207 Мбайт (94%)
Язык : English
Дата кодирования : UTC 2013-02-18 20:00:00
Дата пометки : UTC 2013-02-18 20:00:00
Аудио
Идентификатор : 2
Формат : AAC
Формат/Информация : Advanced Audio Codec
Профиль формата : LC
Идентификатор кодека : 40
Продолжительность : 14 м.
Вид битрейта : Постоянный
Битрейт : 128 Кбит/сек
Каналы : 2 канала
Расположение каналов : Front: L R
Частота : 48,0 КГц
Метод сжатия : С потерями
Размер потока : 13,4 Мбайт (6%)
Язык : English
Дата кодирования : UTC 2013-02-18 20:00:00
Дата пометки : UTC 2013-02-18 20:00:00
Общее
Полное имя : C:\Users\AltzGamer\Videos\Легенды Дубляжа\26 Сергей Малишевский.mp4
Формат : MPEG-4
Профиль формата : QuickTime
Идентификатор кодека : qt
Размер файла : 187 Мбайт
Продолжительность : 12 м.
Режим общего битрейта : Переменный
Общий поток : 2117 Кбит/сек
Дата кодирования : UTC 2013-02-25 20:00:00
Дата пометки : UTC 2013-02-25 20:00:00
Программа кодирования : Lavf53.10.0
Видео
Идентификатор : 1
Формат : AVC
Формат/Информация : Advanced Video Codec
Профиль формата : Baseline@L3.1
Параметр CABAC формата : Нет
Параметр ReFrames формата : 1 кадр
Параметр GOP формата : M=1, N=12
Идентификатор кодека : avc1
Идентификатор кодека/Информация : Advanced Video Coding
Продолжительность : 12 м.
Битрейт : 1986 Кбит/сек
Ширина : 640 пикселей
Высота : 360 пикселей
Соотношение сторон : 16:9
Режим частоты кадров : Постоянный
Частота кадров : 29,970 кадров/сек
Цветовое пространство : YUV
Субдискретизация насыщенности : 4:2:0
Битовая глубина : 8 бит
Тип развёртки : Прогрессивная
Бит/(Пиксели*Кадры) : 0.288
Размер потока : 175 Мбайт (94%)
Язык : English
Дата кодирования : UTC 2013-02-25 20:00:00
Дата пометки : UTC 2013-02-25 20:00:00
Аудио
Идентификатор : 2
Формат : AAC
Формат/Информация : Advanced Audio Codec
Профиль формата : LC
Идентификатор кодека : 40
Продолжительность : 12 м.
Вид битрейта : Переменный
Битрейт : 128 Кбит/сек
Каналы : 2 канала
Расположение каналов : Front: L R
Частота : 48,0 КГц
Метод сжатия : С потерями
Размер потока : 11,2 Мбайт (6%)
Язык : English
Дата кодирования : UTC 2013-02-25 20:00:00
Дата пометки : UTC 2013-02-25 20:00:00
Общее
Полное имя : C:\Users\AltzGamer\Videos\Легенды Дубляжа\27 Елена Арабова.mp4
Формат : MPEG-4
Профиль формата : QuickTime
Идентификатор кодека : qt
Размер файла : 331 Мбайт
Продолжительность : 14 м.
Общий поток : 3099 Кбит/сек
Дата кодирования : UTC 2013-03-25 20:00:00
Дата пометки : UTC 2013-03-25 20:00:00
Программа кодирования : Lavf53.10.0
Видео
Идентификатор : 1
Формат : AVC
Формат/Информация : Advanced Video Codec
Профиль формата : Baseline@L3.1
Параметр CABAC формата : Нет
Параметр ReFrames формата : 1 кадр
Параметр GOP формата : M=1, N=12
Идентификатор кодека : avc1
Идентификатор кодека/Информация : Advanced Video Coding
Продолжительность : 14 м.
Битрейт : 2968 Кбит/сек
Ширина : 640 пикселей
Высота : 360 пикселей
Соотношение сторон : 16:9
Режим частоты кадров : Постоянный
Частота кадров : 29,970 кадров/сек
Цветовое пространство : YUV
Субдискретизация насыщенности : 4:2:0
Битовая глубина : 8 бит
Тип развёртки : Прогрессивная
Бит/(Пиксели*Кадры) : 0.430
Размер потока : 316 Мбайт (96%)
Язык : English
Дата кодирования : UTC 2013-03-25 20:00:00
Дата пометки : UTC 2013-03-25 20:00:00
Аудио
Идентификатор : 2
Формат : AAC
Формат/Информация : Advanced Audio Codec
Профиль формата : LC
Идентификатор кодека : 40
Продолжительность : 14 м.
Вид битрейта : Постоянный
Битрейт : 128 Кбит/сек
Каналы : 2 канала
Расположение каналов : Front: L R
Частота : 48,0 КГц
Метод сжатия : С потерями
Размер потока : 13,6 Мбайт (4%)
Язык : English
Дата кодирования : UTC 2013-03-25 20:00:00
Дата пометки : UTC 2013-03-25 20:00:00

Скриншоты



!
ВНИМАНИЕ! Раздача ведётся путём добавления новых серий!
Если у Вас в битторрент-клиенте статусбар торрента покраснел - проверьте обновления!
27.03.2013 Торрент-файл обновлён: добавлен выпуск 27 - Елена Арабова

Для тех, кто не знаком с процедурой перезакачки торрента:

При каждом обновлении файлов раздачи создаётся новый торрент. Чтобы произвести докачку новой серии, необходимо сделать следующее:
1. Остановить раздачу.
2. Удалить старый торрент у себя из битторрент-клиента (файлы можно не удалять, если планируете поддерживать раздачу в полном объёме).
3. Скачать новый торрент и запустить его у себя в клиенте, при этом указать путь в папку, где лежат прежние файлы.
После этого ваш клиент должен произвести хеширование (проверку) целевой папки (если не производит сам, выберите команду в свойствах торрента), и будет докачивать только те файлы, которых у вас ещё нет. Прежние файлы при этом не удаляются, а продолжают раздаваться.
Eсли вы уже удалили прежние файлы и они не нужны, то предотвратить их повторную закачку можно, отжав галочку на соответствующих элементах при запуске нового торрента.
[teatrix.ru].t16877.torrent 
Торрент: Зарегистрирован [ 2016-03-17 00:12 ] · FDA32A099F37610392F34CBA591BADE92BE36C58

Скачать .torrent

Скачать

25 KB

Статус: проверено
Скачан: 0 раз
Размер: 8.71 GB
terms.php



Показать сообщения:    

Текущее время: 03-Дек 12:34

Часовой пояс: UTC + 3


Вы не можете начинать темы
Вы не можете отвечать на сообщения
Вы не можете редактировать свои сообщения
Вы не можете удалять свои сообщения
Вы не можете голосовать в опросах
Вы не можете прикреплять файлы к сообщениям
Вы можете скачивать файлы