«Золотой винил». «Сиреневый туман» (Олег Нестеров) [2012, документальный, музыка, SATRip]


Статистика раздачи [Обновить пиров]
Размер:  194 MB   |    Зарегистрирован:  8 месяцев 25 дней   |    Скачан:  0 раз

Полного источника не было: Никогда

Личеров:  3  [  0 KB/s  ]   Подробная статистика пиров
 
   
 
 
 

[Цитировать]

«Золотой винил». «Сиреневый туман»
Год выпуска: 2012
Страна: Россия
Жанр: документальный, музыка
Продолжительность: 00:15:40
Перевод: Отсутствует
Русские субтитры: нет
Ведущий: Олег НестеровОписание: Авторская программа Олега Нестерова. История самых известных советских мелодий, ставших классикой.
Как создавались главные мелодии нашей страны? Заглавные песни из кинофильмов «Соломенная шляпка», «Служебный роман», «Ирония судьбы», «Мой ласковый и нежный зверь» или «Буратино»; всенародные хиты «В землянке», «Случайный вальс», «Алеша», «У Черного моря», «Дорогие мои москвичи», «Если завтра война»; невероятные эстрадные блокбастеры «Эй вы там, наверху», «Белые розы», «Бухгалтер», «Зимний сад», «Музыка нас связала», «Комарово»? Кто написал музыку, кто слова, чем вдохновлялись, и какой жизнь зажила песня после того, как обессмертила имена своих создателей? Об этом вы узнаете от Олега Нестерова.
Доп. информация: Выпуск, появященный песне «Сиреневый туман» и творчеству певца Владимира Маркина.
Сэмпл: http://multi-up.com/832244
качество: SATRip
формат: AVI
видеокодек: XviD
аудиокодек: MP3
Видео: Xvid 704x528 (4:3) ~1 526 Kbps 25.00fps
Аудио: MPEG Audio Layer 3 48000Hz stereo 192kbps

MediaInfo

General
Complete name : G:\Мои раздачи\ЗОЛОТОЙ ВИНИЛ. Сиреневый туман.avi
Format : AVI
Format/Info : Audio Video Interleave
File size : 194 MiB
Duration : 15mn 40s
Overall bit rate : 1 732 Kbps
Writing library : VirtualDub build 29808/release
Video
ID : 0
Format : MPEG-4 Visual
Format profile : Advanced Simple@L5
Format settings, BVOP : 2
Format settings, QPel : No
Format settings, GMC : No warppoints
Format settings, Matrix : Default (H.263)
Muxing mode : Packed bitstream
Codec ID : XVID
Codec ID/Hint : XviD
Duration : 15mn 40s
Bit rate : 1 530 Kbps
Width : 704 pixels
Height : 528 pixels
Display aspect ratio : 4:3
Frame rate : 25.000 fps
Color space : YUV
Chroma subsampling : 4:2:0
Bit depth : 8 bits
Scan type : Progressive
Compression mode : Lossy
Bits/(Pixel*Frame) : 0.165
Stream size : 172 MiB (88%)
Writing library : XviD 64
Audio
ID : 1
Format : MPEG Audio
Format version : Version 1
Format profile : Layer 3
Mode : Joint stereo
Mode extension : MS Stereo
Codec ID : 55
Codec ID/Hint : MP3
Duration : 15mn 40s
Bit rate mode : Constant
Bit rate : 192 Kbps
Channel(s) : 2 channels
Sampling rate : 48.0 KHz
Compression mode : Lossy
Stream size : 21.5 MiB (11%)
Alignment : Split accross interleaves
Interleave, duration : 40 ms (1.00 video frame)
Interleave, preload duration : 500 ms

Скриншоты

[teatrix.ru].t16915.torrent 
Торрент: Зарегистрирован [ 2016-03-17 00:24 ] · 9D9D1B3CDFFB9F3CDD170B4CABBA46DABF011AC1

Скачать .torrent

Скачать

16 KB

Статус: проверено
Скачан: 0 раз
Размер: 194 MB
terms.php



Быстрый ответ

Имя:

      
Для отправки сообщений необходимо включить JavaScript
Показать сообщения:    

Текущее время: 11-Дек 07:14

Часовой пояс: UTC + 3


Вы можете начинать темы
Вы можете отвечать на сообщения
Вы не можете редактировать свои сообщения
Вы не можете удалять свои сообщения
Вы не можете голосовать в опросах
Вы не можете прикреплять файлы к сообщениям
Вы можете скачивать файлы