Слишком молод, чтобы умереть: Ривер Феникс, Курт Кобейн, Хит Леджер, Филип Сеймур Хоффман, Брюс Ли и др. (10 эпизодов из 11) / Too Young To Die (Джобст Книгге / Jobst Knigge) [2012 - 2015, документальный, DVB] DVO (Первый канал)


Статистика раздачи [Обновить пиров]
Размер:  9.98 GB   |    Зарегистрирован:  8 месяцев 18 дней   |    Скачан:  1 раз

Полного источника не было: 5 месяцев 9 дней

Личеров:  3  [  0 KB/s  ]   Подробная статистика пиров
 
   
 
 
 

[Цитировать]

Слишком молод, чтобы умереть
Too Young To Die- Год выпуска: 2012 - 2015
Страна: Германия
Жанр: документальный, биографии
Продолжительность: 03:25:05 (10 по ~00:50:00)
Перевод: Профессиональный (двухголосый закадровый)
Доп. инфо о переводе: по заказу ЗАО "Первый канал. Всемирная сеть"
Русские субтитры: нетРежиссер: Джобст Книгге / Jobst Knigge, Нильс Негенданк / Niels Negendank, Даг Фрейер / Dag Freyer, Маттиас Шмидт / Matthias Schmidt, Аннете Баумайстер / Annette Baumeister
Телеканал: "Время: далекое и близкое", "24 ДОК".
Описание: Их обожают, ими восхищаются. Они являются идолами для целых поколений. Каждый их шаг является достоянием средств массовой информации. Но некоторым из них пришлось заплатить дорогую цену за свою славу: на вершине карьеры их жизнь оборвалась, принеся им мифический статус. Цикл "Слишком молод, чтобы умереть" расскажет истории о безвременной и трагичной гибели молодых звезд.
Доп. информация: Eutelsat 36B (W7) DVB-S. Зпизод 11 не был показан.

качество: DVB
формат: MKV
Видео: MPEG Video 2, 720x576 (4:3), 25 fps, ~3089 kbps avg, 0.298 bit/pixel
Аудио: MPEG Audio 2, 2 ch, 48 kHz, 192 kbps

Список выпусков/серий

01. Джон Белуши / John Belushi: Ein Leben über dem Limit (2012)
02. Курт Кобейн / Kurt Cobain: Eine Überdosis Ruhm (2012)
03. Хит Леджер / Heath Ledger: Liebling der Götter (2012)
04. Шэрон Тейт / Sharon Tate: Das Ende der Unschuld (2012)
05. Ривер Феникс / River Phoenix, der scheue Star (2013)
06. Натали Вуд / Natalie Vood: Die Macht der Prophezeiung (2013)
07. Владимир Высоцкий / Vladimir Vyssozky: Zu viel Leben (2013)
08. Джуди Гарланд / Judy Garland (2015)
09. Филип Сеймур Хоффман / Philip Seymour Hoffman: Ganz und gar Schauspieler (2015)
10. Брюс Ли / Bruce Lee (2015)
11. Фалько / Falco – Sterben, um zu leben (2015) - не раздается

Информация по редактированию

Topfield SRP-2410 – запись спутниковой трансляции DVB-S (.rec)
ProjectX 0.91.0.10 - разбор контейнера, удаление рекламы и доп. информации
MKVToolNix GUI 8.8.0 – сборка в контейнер MKV
MkvTagger – редактирование тегов

MediaInfo

Общее
Уникальный идентификатор : 192861510397641240810781550024600516977 (0x9117C69ACB0EFF62900C104D07EAF971)
Полное имя : F:\My Torrents 3\[apreder]Too_Young_To_Die\01. John_Belushi_Ein_Leben_uber_dem_Limit(2012)DVB.mkv
Формат : Matroska
Версия формата : Version 2
Размер файла : 1,21 Гбайт
Продолжительность : 51 м.
Режим общего битрейта : Переменный
Общий поток : 3348 Кбит/сек
Название фильма : Too Young To Die
Дата выпуска : 2012-07-14
Дата кодирования : UTC 2016-02-06 12:39:09
Программа кодирования : mkvmerge v8.8.0 ('Wind at my back') 64bit
Библиотека кодирования : libebml v1.3.3 + libmatroska v1.4.4
Обложка : Yes
Attachments : cover.png / cover_small.png
DIRECTOR : Jobst Knigge
GENRE : Documentary
IMDB : tt2326154
KEYWORDS : rutracker.org
LAW_RATING : 12+
SUMMARY : ep. 01 John Belushi: Ein Leben über dem Limit
Видео
Идентификатор : 1
Формат : MPEG Video
Версия формата : Version 2
Профиль формата : Main@Main
Параметр BVOP формата : Да
Параметр матрицы формата : Выборочная
Параметр GOP формата : M=3, N=12
Format_Settings_PictureStructure : Frame
Идентификатор кодека : V_MPEG2
Идентификатор кодека/Информация : MPEG 1 or 2 Video
Продолжительность : 51 м.
Вид битрейта : Переменный
Битрейт : 3089 Кбит/сек
Ширина : 720 пикселей
Высота : 576 пикселей
Соотношение сторон : 4:3
Режим частоты кадров : Постоянный
Частота кадров : 25,000 кадров/сек
Стандарт вещания : PAL
Цветовое пространство : YUV
Субдискретизация насыщенности : 4:2:0
Битовая глубина : 8 бит
Тип развёртки : Чересстрочная
Порядок развёртки : Верхнее поле первое
Метод сжатия : С потерями
Бит/(Пиксели*Кадры) : 0.298
Временной код первого кадра : 00:00:00:00
Оригинал временного кода : Group of pictures header
Размер потока : 1,11 Гбайт (92%)
Default : Да
Forced : Нет
Аудио
Идентификатор : 2
Формат : MPEG Audio
Версия формата : Version 1
Профиль формата : Layer 2
Идентификатор кодека : A_MPEG/L2
Идентификатор кодека/Подсказка : MP2
Продолжительность : 51 м.
Вид битрейта : Постоянный
Битрейт : 192 Кбит/сек
Каналы : 2 канала
Частота : 48,0 КГц
Метод сжатия : С потерями
Размер потока : 70,9 Мбайт (6%)
Язык : Russian
Default : Да
Forced : Нет

Скриншоты

Резервные скриншоты

-

Внимание! Раздача ведётся путём добавления новых выпусков

Внимание! Раздача ведётся путём добавления новых выпусков; при каждом добавлении создаётся новый торрент. Чтобы начать докачку нового выпуска, пользователям необходимо сделать следующее:
(1) остановить скачивание,
(2) удалить старый торрент у себя из клиента (старые серии удалять не надо),
(3) скачать новый торрент и запустить его у себя в клиенте вместо старого, при этом указать клиенту путь в старую папку куда и должно происходить скачивание новых выпусков.
Ваш клиент при этом должен произвести хеширование (проверку) старой папки (если не производит сам - помогите ему сделать это). В результате он будет докачивать только те выпуски, которых у Вас ещё нет. Старые выпуски при этом не удаляются, а продолжают раздаваться!
Eсли Вы уже удалили старые выпуски, то предотвратить их повторную закачку можно, сняв галочки в соответствующих местах при запуске нового торрента. По возможности, желательно не удалять старые выпуски как можно дольше, чтобы релизёр не только продолжал раздавать старые выпуски, но и смог сконцентрироваться на новых.
- [614]
[teatrix.ru].t16916.torrent 
Торрент: Зарегистрирован [ 2016-03-17 00:24 ] · F22C83EF94355511A251CAAD469EC71018DB9C2E

Скачать .torrent

Скачать

26 KB

Статус: проверено
Скачан: 1 раз
Размер: 9.98 GB
terms.php



Быстрый ответ

Имя:

      
Для отправки сообщений необходимо включить JavaScript
Показать сообщения:    

Текущее время: 04-Дек 21:22

Часовой пояс: UTC + 3


Вы можете начинать темы
Вы можете отвечать на сообщения
Вы не можете редактировать свои сообщения
Вы не можете удалять свои сообщения
Вы не можете голосовать в опросах
Вы не можете прикреплять файлы к сообщениям
Вы можете скачивать файлы