А на самом деле... (Михаил Трофимов) [2009, Документальный, познавательный, культура, SATRip] (1-4 серии из 4)


Статистика раздачи [Обновить пиров]
Размер:  1.4 GB   |    Зарегистрирован:  8 месяцев 24 дня   |    Скачан:  0 раз

Полного источника не было: Никогда

Личеров:  3  [  0 KB/s  ]   Подробная статистика пиров
 
   
 
 
 

[Цитировать]

А на самом деле... Год выпуска: 2009
Страна: Россия
Жанр: Документальный, познавательный, культура
Продолжительность: 4 х ~ 00:26:00
Перевод: Не требуется
Русские субтитры: нет
Режиссер: Михаил Трофимов
Описание: В основе многих литературных произведений лежат подлинные истории. Потом они обрастают вымышленными подробностями, появляются новые повороты и другие имена. А как же подлинные, жизненные истории героев? Авторы цикла попытались выяснить, как все было на самом деле...
качество: SATRip
формат: AVI
видеокодек: DivX
аудиокодек: MP3
Видео: MPEG-4 Visual, DivX 5, 704 х 528 (4:3), 25,000 кадров/сек, 1796 Кбит/сек, 0.193 бит/пиксель
Аудио: MPEG Audio Layer 3, 48,0 КГц, 128 Кбит/сек, 2 канала

Список серий:
  • Садовая, 302-бис
  • Случаи из жизни барона Мюнхгаузена
  • Пишу тебя на Океане...
  • Странная песенка Суок
    Автор рипа стефан

    MediaInfo

    Общее
    Полное имя : E:\torrent\А на самом деле\1. Садовая, 302-бис.avi
    Формат : AVI
    Формат/Информация : Audio Video Interleave
    Размер файла : 360 Мбайт
    Продолжительность : 26 м.
    Общий поток : 1934 Кбит/сек
    Библиотека кодирования : VirtualDub build 32842/release
    Видео
    Идентификатор : 0
    Формат : MPEG-4 Visual
    Параметр BVOP формата : Нет
    Параметр QPel формата : Нет
    Параметр GMC формата : Без точки перехода
    Параметр матрицы формата : Default (H.263)
    Идентификатор кодека : DX50
    Идентификатор кодека/Подсказка : DivX 5
    Продолжительность : 26 м.
    Битрейт : 1796 Кбит/сек
    Ширина : 704 пикселя
    Высота : 528 пикселей
    Соотношение сторон : 4:3
    Частота кадров : 25,000 кадров/сек
    Цветовое пространство : YUV
    Субдискретизация насыщенности : 4:2:0
    Битовая глубина : 8 бит
    Тип развёртки : Прогрессивная
    Метод сжатия : С потерями
    Бит/(Пиксели*Кадры) : 0.193
    Размер потока : 334 Мбайт (93%)
    Библиотека кодирования : DivX 5.2.1 (WaffleDay) (UTC 2004-09-08)
    Аудио
    Идентификатор : 1
    Формат : MPEG Audio
    Версия формата : Version 1
    Профиль формата : Layer 3
    Режим : Joint stereo
    Расширение режима : MS Stereo
    Идентификатор кодека : 55
    Идентификатор кодека/Подсказка : MP3
    Продолжительность : 26 м.
    Вид битрейта : Постоянный
    Битрейт : 128 Кбит/сек
    Каналы : 2 канала
    Частота : 48,0 КГц
    Метод сжатия : С потерями
    Размер потока : 23,8 Мбайт (7%)
    Выравнивание : Разделение по промежуткам
    Продолжительность промежутка : 40 мс. (1,00 видеокадр)
    Время предзагрузки промежутка : 500 мс.

    Скриншоты

    [teatrix.ru].t16924.torrent 
    Торрент: Зарегистрирован [ 2016-03-17 00:24 ] · 36BA12E831D0968F0260F970C02E5CF243C5188F

    Скачать .torrent

    Скачать

    15 KB

    Статус: проверено
    Скачан: 0 раз
    Размер: 1.4 GB
    terms.php



  • Быстрый ответ

    Имя:

          
    Для отправки сообщений необходимо включить JavaScript
    Показать сообщения:    

    Текущее время: 10-Дек 11:56

    Часовой пояс: UTC + 3


    Вы можете начинать темы
    Вы можете отвечать на сообщения
    Вы не можете редактировать свои сообщения
    Вы не можете удалять свои сообщения
    Вы не можете голосовать в опросах
    Вы не можете прикреплять файлы к сообщениям
    Вы можете скачивать файлы