Кино в деталях / Сергей Пускепалис (Эфир от 19-02-2013) [2013, Тв-Шоу, SATRip]


Статистика раздачи [Обновить пиров]
Размер:  582 MB   |    Зарегистрирован:  8 месяцев 23 дня   |    Скачан:  0 раз

Полного источника не было: Никогда

Личеров:  3  [  0 KB/s  ]   Подробная статистика пиров
 
   
 
 
 

[Цитировать]

Кино в деталях / Сергей Пускепалис (Эфир от 19-02-2013)
Год выпуска: 2013
Страна: Россия
Жанр: Тв-Шоу
Продолжительность: 00:49:18
Перевод: Не требуется
Генеральный директор: Елена Калпахчьян
Креативный продюсер: Надежда Родионова
Режиссер: Анна Кириллова
Ведущий: Федор Бондарчук

Описание: Премьеры и кинофестивали, репортажи со съемочной площадки и знаменитые гости - самое интересное из мира кино! В своей программе Федор показывает кино с разных ракурсов: эстетическую сторону представляют актёры и режиссёры, о бизнес-составляющей с ведущим говорят продюсеры и дистрибьюторы. Валерий Тодоровский, Дмитрий Месхиев, Андрей Звягинцев, Чулпан Хаматова, Павел Лунгин и многие другие персоналии киноиндустрии - герои выпусков программы «Кино в деталях». Гости охотно откровенничают с Бондарчуком, рассказывают о творческих планах, о ходе съёмок и даже о личной жизни. При этом в программе звучат только авторитетные мнения, и только свежие новости мира кино.
Качество: SATRip
Формат: AVI
Видео кодек: XviD
Аудио кодек: MP3
Видео: XviD, 704x528, 25 fps, 1500 kbit/s
Аудио: 48 kHz, MPEG Layer 3, 2 ch, ~192.00 kbps avg
Сторонней рекламы нет!

MediaInfo

Общее
Полное имя : E:\Downloads\55\Kino_v_Detalyax_ 19.02.2013.avi
Формат : AVI
Формат/Информация : Audio Video Interleave
Размер файла : 582 Мбайт
Продолжительность : 49 м.
Общий поток : 1638 Кбит/сек
Программа кодирования : TMPGEnc Video Mastering Works 5 Version. 5.0.6.38
Библиотека кодирования : VirtualDub build 24442/release
Примечание : www.BigFANGroup.org by kill_01
Видео
Идентификатор : 0
Формат : MPEG-4 Visual
Параметр BVOP формата : 1
Параметр QPel формата : Нет
Параметр GMC формата : Без точки перехода
Параметр матрицы формата : Default (H.263)
Режим смешивания : Сжатый битовый поток
Идентификатор кодека : DX50
Идентификатор кодека/Подсказка : DivX 5
Продолжительность : 49 м.
Битрейт : 1500 Кбит/сек
Ширина : 704 пикс.
Высота : 528 пикс.
Соотношение сторон : 4:3
Частота кадров : 25,000 кадр/сек
Цветовое пространство : YUV
Подвыборка цветности : 4:2:0
Битовая глубина : 8 бит
Тип развёртки : Прогрессивная
Метод сжатия : С потерями
Бит/(Пиксели*Кадры) : 0.161
Размер потока : 533 Мбайт (92%)
Библиотека кодирования : DivX 6.8.5 (UTC 2009-08-20)
Аудио
Идентификатор : 1
Формат : MPEG Audio
Версия формата : Version 1
Профиль формата : Layer 3
Режим : Joint stereo
Идентификатор кодека : 55
Идентификатор кодека/Подсказка : MP3
Продолжительность : 49 м.
Вид битрейта : Постоянный
Битрейт : 128 Кбит/сек
Каналы : 2 канала
Частота : 48,0 КГц
Метод сжатия : С потерями
Размер потока : 45,5 Мбайт (8%)
Выравнивание : Разделение по промежуткам
Продолжительность промежутка : 40 мс. (1,00 видеокадр)
Время предзагрузки промежутка : 500 ms
Раздача группы:
Релиз: KILL 01

Эфир от 19-02-2013 Скриншоты

[teatrix.ru].t16925.torrent 
Торрент: Зарегистрирован [ 2016-03-17 00:24 ] · 2ADFCF16960667255E15451F59AB7A3478C46526

Скачать .torrent

Скачать

12 KB

Статус: проверено
Скачан: 0 раз
Размер: 582 MB
terms.php



Показать сообщения:    

Текущее время: 09-Дек 08:53

Часовой пояс: UTC + 3


Вы не можете начинать темы
Вы не можете отвечать на сообщения
Вы не можете редактировать свои сообщения
Вы не можете удалять свои сообщения
Вы не можете голосовать в опросах
Вы не можете прикреплять файлы к сообщениям
Вы можете скачивать файлы