Концерт Центрального военного оркестра Министерства обороны РФ (Евгения Ежова) [2013, Военная музыка, IPTVRip]


Статистика раздачи [Обновить пиров]
Размер:  820 MB   |    Зарегистрирован:  8 месяцев 22 дня   |    Скачан:  0 раз

Полного источника не было: Никогда

Личеров:  3  [  0 KB/s  ]   Подробная статистика пиров
 
   
 
 
 

[Цитировать]

Концерт Центрального военного оркестра Министерства обороны РФ
Год выпуска: 2013
Страна: Россия
Жанр: Военная музыка
Продолжительность: 0:54:44
Перевод: Не требуется
Русские субтитры: нет
Режиссер: Евгения Ежова
Описание: В программе: марши, вальсы, польки, романсы и дуэты. Исполнители: Центральный военный оркестр Министерства обороны Российской Федерации. Солисты: Наталия Манулик, Дарья Зыкова, Светлана Ильина, Василий Пьянов, Вадим Ананьев, Иван Корпан. Дирижеры - Сергей Дурыгин, Тимофей Маякин, Александр Чердаков. Запись из Светлановского зала ММДМ.
качество: IPTVRip
формат: AVI
видеокодек: XviD
аудиокодек: MP3
Видео: Xvid, 704x422, 16:9, 1947 Kbps, 25fps
Аудио: mp3, 128kbs, 48KHz, 2ch.

MediaInfo

General
Complete name : Концерт ЦВОМОРФ 23 февраля 2013.avi
Format : AVI
Format/Info : Audio Video Interleave
File size : 820 MiB
Duration : 54mn 44s
Overall bit rate : 2 094 Kbps
Video
ID : 0
Format : MPEG-4 Visual
Format profile : Advanced Simple@L4
Format settings, BVOP : 2
Format settings, QPel : No
Format settings, GMC : No warppoints
Format settings, Matrix : Default (H.263)
Codec ID : DIVX
Codec ID/Info : Project Mayo
Codec ID/Hint : DivX 4
Duration : 54mn 44s
Bit rate : 1 947 Kbps
Width : 704 pixels
Height : 422 pixels
Display aspect ratio : 1.668
Frame rate : 50.000 fps
Color space : YUV
Chroma subsampling : 4:2:0
Bit depth : 8 bits
Scan type : Progressive
Compression mode : Lossy
Bits/(Pixel*Frame) : 0.131
Stream size : 762 MiB (93%)
Writing library : XviD 64
Audio
ID : 1
Format : MPEG Audio
Format version : Version 1
Format profile : Layer 3
Codec ID : 55
Codec ID/Hint : MP3
Duration : 54mn 44s
Source duration : 54mn 44s
Bit rate mode : Constant
Bit rate : 128 Kbps
Channel(s) : 2 channels
Sampling rate : 48.0 KHz
Compression mode : Lossy
Stream size : 50.1 MiB (6%)
Alignment : Aligned on interleaves
Interleave, duration : 24 ms (1.20 video frame)
∙∙∙∙∙·▫▫ᵒᴼᵒ▫ₒₒ▫ᵒᴼᵒ▫ₒₒ▫ᵒᴼᵒ☼)===>M0u ToppeHTbI<===°º¤ø,¸¸,ø¤º°`°º¤ø,¸,ø¤°º¤ø,¸
[teatrix.ru].t16935.torrent 
Торрент: Зарегистрирован [ 2016-03-17 00:26 ] · A12F689742887722CE48BF25252F82A37F516A4E

Скачать .torrent

Скачать

16 KB

Статус: проверено
Скачан: 0 раз
Размер: 820 MB
terms.php



Быстрый ответ

Имя:

      
Для отправки сообщений необходимо включить JavaScript
Показать сообщения:    

Текущее время: 08-Дек 11:00

Часовой пояс: UTC + 3


Вы можете начинать темы
Вы можете отвечать на сообщения
Вы не можете редактировать свои сообщения
Вы не можете удалять свои сообщения
Вы не можете голосовать в опросах
Вы не можете прикреплять файлы к сообщениям
Вы можете скачивать файлы