Дерзкий Люлли / Lully l'Incommode (Оливье Симонне / Olivier Simonnet) [2009, документальный, биография, музыка барокко, SATRip]


Статистика раздачи [Обновить пиров]
Размер:  1.3 GB   |    Зарегистрирован:  8 месяцев 18 дней   |    Скачан:  0 раз

Полного источника не было: Никогда

Личеров:  3  [  0 KB/s  ]   Подробная статистика пиров
 
   
 
 
 

[Цитировать]

Дерзкий Люлли / Lully l'Incommode
Год выпуска: 2009
Страна: Франция
Жанр: документальный, биография, музыка барокко
Продолжительность: 1:32:05
Перевод: Одноголосый закадровый
Русские субтитры: нет
Режиссер: Оливье Симонне
Описание: История жизни Жана-Батиста Люлли — знаменитого французского композитора итальянского происхождения, создателя французской национальной оперы и придворного дирижёра короля Людовика XIV. В фильме, снятом во дворце Версаля, принимают участие оркестры и ансамбли: «Le Concert Spirituel» во главе с Эрве Нике, «Capriccio Stravagante» Скипа Семпе, «Les Folies Françoises» Патрика Коэна-Акениана, «Le Parnasse français» Луи Кастелена, «L’Arpeggiata» Кристины Плюар и «Le Poème harmonique» Винсента Дюместре, а также историки, музыковеды и мастера по изготовлению старинных инструментов эпохи барокко.
В роли Жана-Батиста Люлли – актёр «Comédie française» Тьерри Анкис.
Доп. информация: Спокойно воспроизводится на бытовых ДВД-проигрывателях.
Перевод Александра Пейштра. Текст читает Роман Антонович.
Сэмпл: http://multi-up.com/836555
Раздача исходного файла в MKV с французской дорожкой находится здесь: http://teatrix.ru/viewtopic.php?t=4155744
качество: SATRip
формат: AVI
видеокодек: XviD
аудиокодек: MP3
Видео: Xvid, 720x400 (16:9), 1696 kbps, 25.00fps
Аудио: mp3, 320 kbps, 48 kHz, 2 ch

MediaInfo

General
Complete name : D:\***\***\Lully l'incommode (Olivier Simonnet).avi
Format : AVI
Format/Info : Audio Video Interleave
Format profile : OpenDML
File size : 1.30 GiB
Duration : 1h 32mn
Overall bit rate : 2 016 Kbps
Movie name : Lully l'incommode
Writing application : Lavf52.94.0
Video
ID : 0
Format : xvid
Codec ID : xvid
Duration : 1h 32mn
Bit rate : 1 681 Kbps
Width : 720 pixels
Height : 400 pixels
Display aspect ratio : 16:9
Frame rate : 25.000 fps
Bits/(Pixel*Frame) : 0.233
Stream size : 1.08 GiB (83%)
Audio
ID : 1
Format : MPEG Audio
Format version : Version 1
Format profile : Layer 3
Mode : Joint stereo
Mode extension : MS Stereo
Codec ID : 55
Codec ID/Hint : MP3
Duration : 1h 32mn
Bit rate mode : Constant
Bit rate : 320 Kbps
Channel(s) : 2 channels
Sampling rate : 48.0 KHz
Compression mode : Lossy
Stream size : 211 MiB (16%)
Alignment : Aligned on interleaves
Interleave, duration : 24 ms (0.60 video frame)
Writing library : LAME3.98.4

Скриншоты

[teatrix.ru].t16941.torrent 
Торрент: Зарегистрирован [ 2016-03-17 00:27 ] · D16296C6136C5A58A0ED9C7AFFDE3F1F7469F8B0

Скачать .torrent

Скачать

13 KB

Статус: проверено
Скачан: 0 раз
Размер: 1.3 GB
terms.php



Быстрый ответ

Имя:

      
Для отправки сообщений необходимо включить JavaScript
Показать сообщения:    

Текущее время: 04-Дек 15:17

Часовой пояс: UTC + 3


Вы можете начинать темы
Вы можете отвечать на сообщения
Вы не можете редактировать свои сообщения
Вы не можете удалять свои сообщения
Вы не можете голосовать в опросах
Вы не можете прикреплять файлы к сообщениям
Вы можете скачивать файлы