Музыкальный иллюминатор. Eagles (Алексей Титов) [2011, Документальный, DVB]


Статистика раздачи [Обновить пиров]
Размер:  696 MB   |    Зарегистрирован:  8 месяцев 25 дней   |    Скачан:  0 раз

Полного источника не было: Никогда

Личеров:  3  [  0 KB/s  ]   Подробная статистика пиров
 
   
 
 
 

[Цитировать]

Музыкальный иллюминатор. Eagles
Год выпуска: 2011
Страна: ООО «Альтаир»
Жанр: Документальный
Продолжительность: 00:26:00
Перевод: Не требуется
Русские субтитры: нет
Автор и ведущий: Александр Лоевский
Режиссер: Алексей Титов
Описание: Если вы думаете, что кантри рок это песни про Америку, сыгранные на банджо и звучащие на радиостанциях для дальнобойщиков, то сейчас вас ждет большой сюрприз, под понятием кантри рок скрывается совершенно другая музыка и докажет это самая популярна группа выступающая в указанном жанре. 220 миллионов проданных дисков по всему миру, шесть премий «Грэмми» и практически асоциальный статус самой успешной группы 70-х. Все это Eagles – титаны кантри рока…

качество: DVB
формат: MPG
видеокодек: MPEG2
аудиокодек: MP2
Видео: MPEG2 Video 720x576 (4:3) 25.00fp Bit rate 3500Kbps Constant Bits/(Pixel*Frame) 0.338
Аудио: MP2 48000Hz 2ch 192kbps

MediaInfo

General
Complete name : F:\torrent\Музыкальный иллюминатор. Eagles.mpg
Format : MPEG-PS
File size : 696 MiB
Duration : 26mn 0s
Overall bit rate : 3 741 Kbps
Writing library : (c) 1998-2011 Womble Multimedia, Inc. / MPEG Video Wizard DVD 5.0.1.100 (03/2011) / Dec 15 2011
Video
ID : 224 (0xE0)
Format : MPEG Video
Format version : Version 2
Format profile : Main@Main
Format settings, BVOP : Yes
Format settings, Matrix : Default
Format settings, GOP : M=3, N=24
Duration : 26mn 0s
Bit rate mode : Constant
Bit rate : 3 500 Kbps
Width : 720 pixels
Height : 576 pixels
Display aspect ratio : 4:3
Frame rate : 25.000 fps
Standard : PAL
Color space : YUV
Chroma subsampling : 4:2:0
Bit depth : 8 bits
Scan type : Interlaced
Scan order : Top Field First
Bits/(Pixel*Frame) : 0.338
Stream size : 646 MiB (93%)
Writing library : (c) 1998-2011 Womble Multimedia, Inc. / MPEG Video Wizard DVD 5.0.1.100 (03/2011) / Dec 15 2011
Audio
ID : 192 (0xC0)
Format : MPEG Audio
Format version : Version 1
Format profile : Layer 2
Duration : 26mn 0s
Bit rate mode : Constant
Bit rate : 192 Kbps
Channel(s) : 2 channels
Sampling rate : 48.0 KHz
Video delay : -80ms
Stream size : 35.7 MiB (5%)

Скриншоты

[teatrix.ru].t16943.torrent 
Торрент: Зарегистрирован [ 2016-03-17 00:27 ] · BB87DDB3A9E3FC4DD950303840F47BE9E0B89C3A

Скачать .torrent

Скачать

14 KB

Статус: проверено
Скачан: 0 раз
Размер: 696 MB
terms.php



Быстрый ответ

Имя:

      
Для отправки сообщений необходимо включить JavaScript
Показать сообщения:    

Текущее время: 11-Дек 16:49

Часовой пояс: UTC + 3


Вы можете начинать темы
Вы можете отвечать на сообщения
Вы не можете редактировать свои сообщения
Вы не можете удалять свои сообщения
Вы не можете голосовать в опросах
Вы не можете прикреплять файлы к сообщениям
Вы можете скачивать файлы