Золотой век Парижа: рождение модернизма / Paris the Luminous Years. Toward the Making of the Modern (Перри Миллер Адато / Perry Miller Adato) [2010, Документальный, искусство, SATRip]


Статистика раздачи [Обновить пиров]
Размер:  1.33 GB   |    Зарегистрирован:  8 месяцев 17 дней   |    Скачан:  1 раз

Полного источника не было: 7 месяцев 4 дня

Личеров:  3  [  0 KB/s  ]   Подробная статистика пиров
 
   
 
 
 

[Цитировать]

Золотой век Парижа: рождение модернизма / Paris the Luminous Years. Toward the Making of the Modern
Год выпуска: 2010
Страна: Франция
Жанр: Документальный, искусство
Продолжительность: 2 х 52 мин
Перевод: Одноголосый закадровый
Русские субтитры: нет
Режиссер: Перри Миллер Адато / Perry Miller Adato

Описание: На первые десятилетия ХХ века пришелся расцвет модернизма в западном искусстве. В корне поменялись все традиционные представления о живописи, музыке, литературе, танце, театре. Эпицентром этого бума стала столица Франции — Париж.
С 1905 по 1930 год Париж магически притягивал все новое и передовое, и стал настоящей Меккой для талантов со всего света — от Мичигана до Москвы, от Бруклина до Барселоны, которые создали новое направление западного искусства.
Об этих исторических событиях рассказывают непосредственные их участники, в том числе Марк Шагал, Игорь Стравинский, Жан Кокто, Аарон Копленд, Марсель Дюшамп, Сильвия Бич, Джанет Фланнер и другие. Париж в этой фильме представлен с неожиданной точки зрения: это не привычная гламурная декорация к революционным событиям, но главное действующее лицо, катализатор, которому модернизм обязан своим рождением.

Доп. информация: Релиз:
Автор рипа: marfa12
качество: SATRip
формат: AVI
видеокодек: XviD
аудиокодек: MP3
Видео: 704x400 (1.76:1), 25 fps, XviD MPEG-4 ~1694 kbps avg, 0.24 bit/pixel
Аудио: 48 kHz, MPEG Layer 3, 2 ch, ~128.00 kbps avg- Русский одноголосый

MediaInfo

Полное имя : D:\ФЕНИКС\Золотой век Парижа - рождение модернизма\Paris.The.Luminous.Years.Toward.the.Making.of.the.Modern.1of2.2010.SATRip.by.marfa12.avi
Формат : AVI
Формат/Информация : Audio Video Interleave
Размер файла : 682 Мбайт
Продолжительность : 52 м.
Общий поток : 1833 Кбит/сек
Программа кодирования : VirtualDubMod 1.5.10.2 (build 2540/release)
Библиотека кодирования : VirtualDubMod build 2540/release
Видео
Идентификатор : 0
Формат : MPEG-4 Visual
Профиль формата : Simple@L3
Параметр BVOP формата : 2
Параметр QPel формата : Нет
Параметр GMC формата : Без точки перехода
Параметр матрицы формата : Default (MPEG)
Режим смешивания : Сжатый битовый поток
Идентификатор кодека : XVID
Идентификатор кодека/Подсказка : XviD
Продолжительность : 52 м.
Битрейт : 1695 Кбит/сек
Ширина : 704 пикселя
Высота : 400 пикселей
Соотношение сторон : 16:9
Частота кадров : 25,000 кадров/сек
Цветовое пространство : YUV
Субдискретизация насыщенности : 4:2:0
Битовая глубина : 8 бит
Тип развёртки : Прогрессивная
Метод сжатия : С потерями
Бит/(Пиксели*Кадры) : 0.241
Размер потока : 631 Мбайт (92%)
Библиотека кодирования : XviD 1.1.0 Beta2 (UTC 2005-04-04)
Аудио
Идентификатор : 1
Формат : MPEG Audio
Версия формата : Version 1
Профиль формата : Layer 3
Идентификатор кодека : 55
Идентификатор кодека/Подсказка : MP3
Продолжительность : 52 м.
Вид битрейта : Постоянный
Битрейт : 128 Кбит/сек
Каналы : 2 канала
Частота : 48,0 КГц
Метод сжатия : С потерями
Размер потока : 47,7 Мбайт (7%)
Выравнивание : Соединение по промежуткам
Продолжительность промежутка : 40 мс. (1,00 видеокадр)
Время предзагрузки промежутка : 504 мс.
Библиотека кодирования : LAME3.90.
Настройки программы : -m s -V 4 -q 1 -lowpass 13.8 -b 128
Общее
Полное имя : D:\ФЕНИКС\Золотой век Парижа - рождение модернизма\Paris.The.Luminous.Years.Toward.the.Making.of.the.Modern.2of2.2010.SATRip.by.marfa12.avi
Формат : AVI
Формат/Информация : Audio Video Interleave
Размер файла : 683 Мбайт
Продолжительность : 52 м.
Общий поток : 1832 Кбит/сек
Библиотека кодирования : VirtualDub build 30091/release
Видео
Идентификатор : 0
Формат : MPEG-4 Visual
Профиль формата : Simple@L3
Параметр BVOP формата : 2
Параметр QPel формата : Нет
Параметр GMC формата : Без точки перехода
Параметр матрицы формата : Default (MPEG)
Режим смешивания : Сжатый битовый поток
Идентификатор кодека : XVID
Идентификатор кодека/Подсказка : XviD
Продолжительность : 52 м.
Битрейт : 1695 Кбит/сек
Ширина : 704 пикселя
Высота : 400 пикселей
Соотношение сторон : 16:9
Частота кадров : 25,000 кадров/сек
Цветовое пространство : YUV
Субдискретизация насыщенности : 4:2:0
Битовая глубина : 8 бит
Тип развёртки : Прогрессивная
Метод сжатия : С потерями
Бит/(Пиксели*Кадры) : 0.241
Размер потока : 632 Мбайт (92%)
Библиотека кодирования : XviD 1.1.0 Beta2 (UTC 2005-04-04)
Аудио
Идентификатор : 1
Формат : MPEG Audio
Версия формата : Version 1
Профиль формата : Layer 3
Идентификатор кодека : 55
Идентификатор кодека/Подсказка : MP3
Продолжительность : 52 м.
Вид битрейта : Постоянный
Битрейт : 128 Кбит/сек
Каналы : 2 канала
Частота : 48,0 КГц
Метод сжатия : С потерями
Размер потока : 47,7 Мбайт (7%)
Выравнивание : Разделение по промежуткам
Продолжительность промежутка : 40 мс. (1,00 видеокадр)
Время предзагрузки промежутка : 500 мс.
Библиотека кодирования : LAME3.90.
Настройки программы : -m s -V 4 -q 1 -lowpass 13.8 -b 128

Скриншоты

[teatrix.ru].t16946.torrent 
Торрент: Зарегистрирован [ 2016-03-17 00:27 ] · F256AC098F0962831DBDD1105AC3E70FC5D42097

Скачать .torrent

Скачать

14 KB

Статус: проверено
Скачан: 1 раз
Размер: 1.33 GB
terms.php



Быстрый ответ

Имя:

      
Для отправки сообщений необходимо включить JavaScript
Показать сообщения:    

Текущее время: 03-Дек 03:23

Часовой пояс: UTC + 3


Вы можете начинать темы
Вы можете отвечать на сообщения
Вы не можете редактировать свои сообщения
Вы не можете удалять свои сообщения
Вы не можете голосовать в опросах
Вы не можете прикреплять файлы к сообщениям
Вы можете скачивать файлы