Шостакович — художник и гражданин (Юрий Богатыренко) [1978, документальный, биография, искусство, SATRip]


Статистика раздачи [Обновить пиров]
Размер:  835 MB   |    Зарегистрирован:  8 месяцев 20 дней   |    Скачан:  0 раз

Полного источника не было: Никогда

Личеров:  3  [  0 KB/s  ]   Подробная статистика пиров
 
   
 
 
 

[Цитировать]

Шостакович — художник и гражданин
Год выпуска: 1978
Страна: СССР
Жанр: документальный, биография, искусство
Продолжительность: 00:57:04
Перевод: Не требуется
Русские субтитры: нет-Режиссер: Юрий Богатыренко-Описание:
Об одном из классиков «серьезной» советской музыки вспомнят люди хорошо знавшие композитора, его коллеги и товарищи. Анекдотический случай: Владимир Маяковский, когда его знакомили на репетиции «Бани» с Шостаковичем, протянул ему не всю ладонь, а два пальца. Молодой робкий композитор в круглых очках не стушевался и подал в ответ всего один палец. Восхищенный Маяковский заметил: «Этот далеко пойдет!».

Доп. информация

В передаче принимали участие:
композитор Родион Щедрин, поэт Евгений Евтушенко, Борис Покровский, пианист Ван Клиберн.
Произведения Д.Д.Шостаковича прозвучали в исполнении:
- Симфонического оркестра Центрального телевидения и всесоюзного радио, дирижер Максим Шостакович,
- народного артиста СССР Леонида Когана,
- народного артиста РСФСР Игоря Ойстраха,
- народного артиста СССР Давида Ойстраха,
- народного артиста СССР Святослава Рихтера,
- квартета имени Танеева,
- народной артистки СССР Ирины Богачевой,
- заслуженной артистки РСФСР Элеоноры Андреевой,
- заслуженного артиста Азербайджана Ибрагима Джафарова
- Ивана Шапаря.
В фильме использованы материалы Госфильмофонда СССР, Государственного архива кино-фото-фонодокументов СССР, Телерадиофрнда СССР.
Рип: maslovagal
качество: SATRip
формат: AVI
видеокодек: DivX
аудиокодек: MP3
Видео: 704x528 (1.33:1), 25 fps, DivX Codec 5.05 ~1842 kbps avg, 0.20 bit/pixel
Аудио: 48 kHz, MPEG Layer 3, 2 ch, ~192.00 kbps avg

MediaInfo

Format : AVI
Format/Info : Audio Video Interleave
File size : 835 MiB
Duration : 57mn 4s
Overall bit rate : 2 044 Kbps
Writing application : VirtualDubMod 1.5.10.2 (build 2540/release)
Writing library : VirtualDubMod build 2540/release
Video
ID : 0
Format : MPEG-4 Visual
Format settings, BVOP : No
Format settings, QPel : No
Format settings, GMC : No warppoints
Format settings, Matrix : Default (H.263)
Codec ID : DX50
Codec ID/Hint : DivX 5
Duration : 57mn 4s
Bit rate : 1 843 Kbps
Width : 704 pixels
Height : 528 pixels
Display aspect ratio : 4:3
Frame rate : 25.000 fps
Color space : YUV
Chroma subsampling : 4:2:0
Bit depth : 8 bits
Scan type : Progressive
Compression mode : Lossy
Bits/(Pixel*Frame) : 0.198
Stream size : 752 MiB (90%)
Writing library : DivX 5.0.5 (UTC 2003-04-24)
Audio
ID : 1
Format : MPEG Audio
Format version : Version 1
Format profile : Layer 3
Mode : Joint stereo
Codec ID : 55
Codec ID/Hint : MP3
Duration : 57mn 4s
Bit rate mode : Constant
Bit rate : 192 Kbps
Channel(s) : 2 channels
Sampling rate : 48.0 KHz
Compression mode : Lossy
Delay relative to video : 12ms
Stream size : 78.4 MiB (9%)
Alignment : Split accross interleaves
Interleave, duration : 40 ms (1.00 video frame)
Interleave, preload duration : 500 ms

Скриншоты

[teatrix.ru].t16947.torrent 
Торрент: Зарегистрирован [ 2016-03-17 00:27 ] · 3E5E73773A565E4CDBC58BFB020108BCB53399DF

Скачать .torrent

Скачать

17 KB

Статус: проверено
Скачан: 0 раз
Размер: 835 MB
terms.php



Быстрый ответ

Имя:

      
Для отправки сообщений необходимо включить JavaScript
Показать сообщения:    

Текущее время: 06-Дек 17:08

Часовой пояс: UTC + 3


Вы можете начинать темы
Вы можете отвечать на сообщения
Вы не можете редактировать свои сообщения
Вы не можете удалять свои сообщения
Вы не можете голосовать в опросах
Вы не можете прикреплять файлы к сообщениям
Вы можете скачивать файлы