Кинопанорама: Советскому кино 70 лет (Марина Пертегас) [1989, телепередача, DVB]


Статистика раздачи [Обновить пиров]
Размер:  5.57 GB   |    Зарегистрирован:  8 месяцев 19 дней   |    Скачан:  1 раз

Полного источника не было: 6 дней

Личеров:  3  [  0 KB/s  ]   Подробная статистика пиров
 
   
 
 
 

[Цитировать]

Кинопанорама
Советскому кино 70 лет- Год выпуска: 1989
Страна: СССР
Жанр: телепередача
Продолжительность: 02:38:12 (00:50:05 + 00:51:52 + 00:56:15)
Перевод: Не требуется
Русские субтитры: нетРежиссер: Марина Пертегас
В ролях: Александр Кайдановский, Сергей Шакуров, Георгий Юнгвальд-Хилькевич, Зиновий Гердт, Владимир Машков, Виктор Мережко, Карен Шахназаров, Станислав Ростоцкий, Алексей Петренко, Сергей Бондарчук, Тамара Макарова, Сергей Юрский, Инна Макарова, Татьяна Самойлова, Олег Стриженов, Алла Ларионова, Михаил Пуговкин
Описание: Одна из самых любимых передач прошлого, на советском телевидении мало было таких программ, которые притягивали зрителя и не вызывали шквал ядовитой критики после ее окончания. Безусловно, интерес к ней был вызван тем, что она являлась путеводителем в мире большого кино – единственным путеводителем на телевидении, а, поскольку в стране фильмов снималось много, а по ТВ их показывали мало, походы в кинотеатр были излюбленным развлечением и времяпровождением граждан. Сейчас даже представить трудно – какие сумасшедшие очереди стояли в билетных кассах на премьерных показах новых фильмов, о которых уже заранее было известно, что они не могут не понравиться. И известно – как раз из "Кинопанорамы". (Вокруг ТВ)
Вам предлагается выпуск передачи, посвященный 70-летию советского кино.
Доп. информация: запись со спутника (канал "Ностальгия").
Сэмпл: http://multi-up.com/838285
качество: DVB
формат: MPEG-PS (См. при проблемах с просмотром видео)
видеокодек: MPEG2
аудиокодек: MP2
Видео: MPEG Video 2, 720x576@768x576 (4:3), 25 fps, ~4645 kbps avg, 0.448 bit/pixel
Аудио: 48 kHz, MPEG Audio 2, 2 ch, ~192.00 kbps avg

MediaInfo

Полное имя                               : H:\My Torrents\[apreder]Kinopanorama_70_of_Soviet_Cinema(1989)DVB\[apreder]Kinopanorama_70_of_Soviet_Cinema_Pt.1(1989)DVB.mpg
Формат : MPEG-PS
Размер файла : 1,73 Гбайт
Продолжительность : 50 м.
Режим общего битрейта : Переменный
Общий поток : 4935 Кбит/сек
Видео
Идентификатор : 224 (0xE0)
Формат : MPEG Video
Версия формата : Version 2
Профиль формата : Main@Main
Параметр BVOP формата : Да
Параметр матрицы формата : Выборочная
Параметр GOP формата : M=1, N=34
Продолжительность : 50 м.
Вид битрейта : Переменный
Битрейт : 4645 Кбит/сек
Ширина : 720 пикселей
Высота : 576 пикселей
Соотношение сторон : 4:3
Частота кадров : 25,000 кадров/сек
Стандарт вещания : PAL
Цветовое пространство : YUV
Субдискретизация насыщенности : 4:2:0
Битовая глубина : 8 бит
Тип развёртки : Чересстрочная
Порядок развёртки : Верхнее поле первое
Метод сжатия : С потерями
Бит/(Пиксели*Кадры) : 0.448
Размер потока : 1,63 Гбайт (94%)
Аудио
Идентификатор : 192 (0xC0)
Формат : MPEG Audio
Версия формата : Version 1
Профиль формата : Layer 2
Продолжительность : 50 м.
Вид битрейта : Постоянный
Битрейт : 192 Кбит/сек
Каналы : 2 канала
Частота : 48,0 КГц
Метод сжатия : С потерями
Размер потока : 68,8 Мбайт (4%)

Скриншоты


Скриншоты анаморфированные


-

Внимание! Раздача ведётся путём добавления новых выпусков

Внимание! Раздача ведётся путём добавления новых выпусков; при каждом добавлении создаётся новый торрент. Чтобы начать докачку нового выпуска, пользователям необходимо сделать следующее:
(1) остановить скачивание,
(2) удалить старый торрент у себя из клиента (старые серии удалять не надо),
(3) скачать новый торрент и запустить его у себя в клиенте вместо старого, при этом указать клиенту путь в старую папку куда и должно происходить скачивание новых выпусков.
Ваш клиент при этом должен произвести хеширование (проверку) старой папки (если не производит сам - помогите ему сделать это). В результате он будет докачивать только те выпуски, которых у Вас ещё нет. Старые выпуски при этом не удаляются, а продолжают раздаваться!
Eсли Вы уже удалили старые выпуски, то предотвратить их повторную закачку можно, сняв галочки в соответствующих местах при запуске нового торрента. По возможности, желательно не удалять старые выпуски как можно дольше, чтобы релизёр не только продолжал раздавать старые выпуски, но и смог сконцентрироваться на новых.
-630/612√
[teatrix.ru].t16948.torrent 
Торрент: Зарегистрирован [ 2016-03-17 00:27 ] · E9DD039FA30A0E73F7D4603128071071E3893FBD

Скачать .torrent

Скачать

29 KB

Статус: проверено
Скачан: 1 раз
Размер: 5.57 GB
terms.php



Показать сообщения:    

Текущее время: 05-Дек 15:33

Часовой пояс: UTC + 3


Вы не можете начинать темы
Вы не можете отвечать на сообщения
Вы не можете редактировать свои сообщения
Вы не можете удалять свои сообщения
Вы не можете голосовать в опросах
Вы не можете прикреплять файлы к сообщениям
Вы можете скачивать файлы