(Neo Classical) Rondo Veneziano - Le Genie De Mozart - 1990, FLAC (tracks+.cue) lossless


 

[Цитировать]

Rondo Veneziano – Le Genie De Mozart
Жанр: Neo Classical
Год издания диска: 1990
Издатель (лейбл): Baby Records
Номер по каталогу: POL 830 - 847 545-2
Страна исполнителя: Италия
Аудиокодек: FLAC
Тип рипа: tracks+.cue
Битрейт аудио: lossless
Продолжительность: 46:57
Rip by penseur
Наличие сканов в содержимом раздачи: да
Треклист:
01. Cosi Fan Tutte (4:11)
02. Don Giovanni (7:26)
03. Sonata (K545) (2:25)
04. Serenata (part I) (5:30)
05. Serenata (part II) (3:59)
06. Jupiter (part I) (7:20)
07. Jupiter (part II) (4:56)
08. Linz Symphonie (3:14)
09. Flauto Magico (part I) (3:56)
10. Flauto Magico (part II) (4:00)
  

Лог создания рипа

Exact Audio Copy V1.0 beta 3 from 29. August 2011
EAC extraction logfile from 22. February 2013, 19:09
Rondo Veneziano / Le génie de Mozart
Used drive : HL-DT-STBDDVDRW CH08LS10 Adapter: 3 ID: 1
Read mode : Secure
Utilize accurate stream : Yes
Defeat audio cache : Yes
Make use of C2 pointers : No
Read offset correction : 667
Overread into Lead-In and Lead-Out : No
Fill up missing offset samples with silence : Yes
Delete leading and trailing silent blocks : No
Null samples used in CRC calculations : Yes
Used interface : Native Win32 interface for Win NT & 2000
Gap handling : Appended to previous track
Used output format : Internal WAV Routines
Sample format : 44.100 Hz; 16 Bit; Stereo
TOC of the extracted CD
Track | Start | Length | Start sector | End sector
---------------------------------------------------------
1 | 0:00.32 | 4:11.25 | 32 | 18881
2 | 4:11.57 | 7:25.48 | 18882 | 52304
3 | 11:37.30 | 2:24.72 | 52305 | 63176
4 | 14:02.27 | 5:30.30 | 63177 | 87956
5 | 19:32.57 | 3:58.45 | 87957 | 105851
6 | 23:31.27 | 7:19.63 | 105852 | 138839
7 | 30:51.15 | 4:56.15 | 138840 | 161054
8 | 35:47.30 | 3:13.70 | 161055 | 175599
9 | 39:01.25 | 3:56.17 | 175600 | 193316
10 | 42:57.42 | 3:59.63 | 193317 | 211304
Track 1
Filename G:\RONDO VENEZIANO Le Genie De Mozart\01 Cosi Fan Tutte.wav
Pre-gap length 0:00:02.42
Peak level 87.7 %
Extraction speed 1.1 X
Track quality 99.9 %
Copy CRC 8E850BC5
Track not present in AccurateRip database
Copy OK
Track 2
Filename G:\RONDO VENEZIANO Le Genie De Mozart\02 Don Giovanni.wav
Pre-gap length 0:00:03.53
Peak level 90.2 %
Extraction speed 1.2 X
Track quality 100.0 %
Copy CRC 86F157C8
Track not present in AccurateRip database
Copy OK
Track 3
Filename G:\RONDO VENEZIANO Le Genie De Mozart\03 Sonata (K545).wav
Pre-gap length 0:00:01.50
Peak level 74.0 %
Extraction speed 1.5 X
Track quality 100.0 %
Copy CRC A58793D8
Track not present in AccurateRip database
Copy OK
Track 4
Filename G:\RONDO VENEZIANO Le Genie De Mozart\04 Serenata (Part I - Eine kleine Nachtmusik).wav
Pre-gap length 0:00:01.36
Peak level 96.4 %
Extraction speed 1.8 X
Track quality 100.0 %
Copy CRC DFF3FC4D
Track not present in AccurateRip database
Copy OK
Track 5
Filename G:\RONDO VENEZIANO Le Genie De Mozart\05 Serenata (Part II).wav
Peak level 96.9 %
Extraction speed 1.8 X
Track quality 100.0 %
Copy CRC 2FD4FADA
Track not present in AccurateRip database
Copy OK
Track 6
Filename G:\RONDO VENEZIANO Le Genie De Mozart\06 Jupiter (Part I).wav
Pre-gap length 0:00:03.20
Peak level 97.9 %
Extraction speed 2.1 X
Track quality 100.0 %
Copy CRC 49EEEA2E
Track not present in AccurateRip database
Copy OK
Track 7
Filename G:\RONDO VENEZIANO Le Genie De Mozart\07 Jupiter (Part II).wav
Peak level 98.1 %
Extraction speed 2.2 X
Track quality 100.0 %
Copy CRC 6E6579DB
Track not present in AccurateRip database
Copy OK
Track 8
Filename G:\RONDO VENEZIANO Le Genie De Mozart\08 Linz symphonie.wav
Pre-gap length 0:00:02.73
Peak level 81.0 %
Extraction speed 2.1 X
Track quality 100.0 %
Copy CRC 43092EC7
Track not present in AccurateRip database
Copy OK
Track 9
Filename G:\RONDO VENEZIANO Le Genie De Mozart\09 Flauto magico (Part I).wav
Pre-gap length 0:00:01.77
Peak level 97.8 %
Extraction speed 2.3 X
Track quality 100.0 %
Copy CRC 1C7DE3CE
Track not present in AccurateRip database
Copy OK
Track 10
Filename G:\RONDO VENEZIANO Le Genie De Mozart\10 Flauto magico (Part II).wav
Peak level 94.3 %
Extraction speed 2.4 X
Track quality 100.0 %
Copy CRC 15AFDEBC
Track not present in AccurateRip database
Copy OK
None of the tracks are present in the AccurateRip database
No errors occurred
End of status report
==== Log checksum 4E9974122FB5A907EE64ABB9F451D80F4739DDC9342A9612EC8B240E9E6C84E2 ====

Содержание индексной карты (.CUE)

REM GENRE Neo Classical
REM DATE 1990
REM DISCID 8E0B010A
REM COMMENT "ExactAudioCopy v1.0b3"
PERFORMER "Rondo Veneziano"
TITLE "Le Genie De Mozart"
FILE "01. Cosi Fan Tutte.flac" WAVE
TRACK 01 AUDIO
TITLE "Cosi Fan Tutte"
PERFORMER "Rondo Veneziano"
PREGAP 00:00:32
INDEX 01 00:00:00
TRACK 02 AUDIO
TITLE "Don Giovanni"
PERFORMER "Rondo Veneziano"
INDEX 00 04:07:60
FILE "02. Don Giovanni.flac" WAVE
INDEX 01 00:00:00
TRACK 03 AUDIO
TITLE "Sonata (K545)"
PERFORMER "Rondo Veneziano"
INDEX 00 07:24:10
FILE "03. Sonata (K545).flac" WAVE
INDEX 01 00:00:00
TRACK 04 AUDIO
TITLE "Serenata (part I)"
PERFORMER "Rondo Veneziano"
INDEX 00 02:23:45
FILE "04. Serenata (part I).flac" WAVE
INDEX 01 00:00:00
FILE "05. Serenata (part II).flac" WAVE
TRACK 05 AUDIO
TITLE "Serenata (part II)"
PERFORMER "Rondo Veneziano"
INDEX 01 00:00:00
TRACK 06 AUDIO
TITLE "Jupiter (part I)"
PERFORMER "Rondo Veneziano"
INDEX 00 03:55:30
FILE "06 Jupiter (part I).flac" WAVE
INDEX 01 00:00:00
FILE "07. Jupiter (part II).flac" WAVE
TRACK 07 AUDIO
TITLE "Jupiter (part II)"
PERFORMER "Rondo Veneziano"
INDEX 01 00:00:00
TRACK 08 AUDIO
TITLE "Linz Symphonie"
PERFORMER "Rondo Veneziano"
INDEX 00 04:53:35
FILE "08. Linz Symphonie.flac" WAVE
INDEX 01 00:00:00
TRACK 09 AUDIO
TITLE "Flauto Magico (part I)"
PERFORMER "Rondo Veneziano"
INDEX 00 03:12:12
FILE "09. Flauto Magico (part I).flac" WAVE
INDEX 01 00:00:00
FILE "10. Flauto Magico (part II).flac" WAVE
TRACK 10 AUDIO
TITLE "Flauto Magico (part II)"
PERFORMER "Rondo Veneziano"
INDEX 01 00:00:00

CUETools log

[CUETools log; Date: 05.03.2013 21:14:48; Version: 2.0.9]
Pregap length 00:00:32.
[CTDB TOCID: SG3u6dapDLw9jjvOo2s6hPB1BSU-] disk not present in database.
[AccurateRip ID: 00127002-0092cc51-8e0b010a] disk not present in database.
Track Peak [ CRC32 ] [W/O NULL] [ LOG ]
-- 98,1 [327088DF] [87A84AD9]
01 87,7 [8E850BC5] [7BFA6159] CRC32
02 90,2 [86F157C8] [646874F5] CRC32
03 74,0 [A58793D8] [D95AD14E] CRC32
04 96,4 [DFF3FC4D] [C740D443] CRC32
05 96,9 [2FD4FADA] [C3D3CDFD] CRC32
06 97,9 [49EEEA2E] [D21022CF] CRC32
07 98,1 [6E6579DB] [CA69A1E5] CRC32
08 81,0 [43092EC7] [92AAAB11] CRC32
09 97,8 [1C7DE3CE] [1C6EC7BF] CRC32
10 94,3 [15AFDEBC] [37AA6D1C] CRC32



Показать сообщения:    

Текущее время: 04-Дек 09:08

Часовой пояс: UTC + 3


Вы не можете начинать темы
Вы не можете отвечать на сообщения
Вы не можете редактировать свои сообщения
Вы не можете удалять свои сообщения
Вы не можете голосовать в опросах
Вы не можете прикреплять файлы к сообщениям
Вы не можете скачивать файлы