Музыкальный иллюминатор. Billy Idol (Алексей Титов) [2011, Документальный, DVB]


Статистика раздачи [Обновить пиров]
Размер:  696 MB   |    Зарегистрирован:  8 месяцев 16 дней   |    Скачан:  0 раз

Полного источника не было: Никогда

Личеров:  3  [  0 KB/s  ]   Подробная статистика пиров
 
   
 
 
 

[Цитировать]

Музыкальный иллюминатор. Billy Idol
Год выпуска: 2011
Производство: ООО «Альтаир»
Жанр: Документальный
Продолжительность: 00:26:02
Перевод: Не требуется
Русские субтитры: нет
Автор и ведущий: Александр Лоевский
Режиссер: Алексей Титов
Описание: Есть ли жизнь после панка, куда деваются панки, когда взрослеют, как панку удостоено встретить старость? На все эти вопросы знает ответы один человек, Майкл Броуд, настолько маститым, что не все наверное знают, что он был когда то панком, сейчас то он, конечно, никакой не панк, а вовсе даже идол. Правильно называть этого человека Айдол, именно так по-английски звучит его псевдоним.
Псевдоним был придуман после того, как школьный учитель назвал его бездельником (англ. «idle» схожее по произношению с «idol»)
Майкл Броуд стал заниматься музыкой и взял себе сценическое имя Билли Айдол после того, как в университете его захватила зарождающаяся в то время волна панка. Вначале он становится гитаристом группы Chelsea, но после трёх выступлений в 1977 году вместе с басистом Тони Джеймсом создаёт Generation X. После распада группы в 1981 году Билли едет в Америку и начинает сольную карьеру…

качество: DVB
формат: MPG
видеокодек: MPEG2
аудиокодек: MP2
Видео: MPEG2 Video 720x576 (4:3) 25.00fps Bit rate 3500Kbps Constant Bits/(Pixel*Frame) 0.338
Аудио: MPEG Audio 48.0 KHz 2ch 192kbps

MediaInfo

General
Complete name : E:\torrent\Музыкальный иллюминатор. Billy Idol.mpg
Format : MPEG-PS
File size : 696 MiB
Duration : 26mn 2s
Overall bit rate : 3 740 Kbps
Writing library : (c) 1998-2011 Womble Multimedia, Inc. / MPEG Video Wizard DVD 5.0.1.100 (03/2011) / Dec 15 2011
Video
ID : 224 (0xE0)
Format : MPEG Video
Format version : Version 2
Format profile : Main@Main
Format settings, BVOP : Yes
Format settings, Matrix : Default
Format settings, GOP : M=3, N=24
Duration : 26mn 2s
Bit rate mode : Constant
Bit rate : 3 500 Kbps
Width : 720 pixels
Height : 576 pixels
Display aspect ratio : 4:3
Frame rate : 25.000 fps
Standard : PAL
Color space : YUV
Chroma subsampling : 4:2:0
Bit depth : 8 bits
Scan type : Interlaced
Scan order : Top Field First
Bits/(Pixel*Frame) : 0.338
Stream size : 647 MiB (93%)
Writing library : (c) 1998-2011 Womble Multimedia, Inc. / MPEG Video Wizard DVD 5.0.1.100 (03/2011) / Dec 15 2011
Audio
ID : 192 (0xC0)
Format : MPEG Audio
Format version : Version 1
Format profile : Layer 2
Duration : 26mn 2s
Bit rate mode : Constant
Bit rate : 192 Kbps
Channel(s) : 2 channels
Sampling rate : 48.0 KHz
Video delay : -80ms
Stream size : 35.8 MiB (5%)

Скриншоты

[teatrix.ru].t16950.torrent 
Торрент: Зарегистрирован [ 2016-03-17 00:27 ] · 81285F56B22ECDB678FD878E1FCCBA8FD4AD3A1C

Скачать .torrent

Скачать

14 KB

Статус: проверено
Скачан: 0 раз
Размер: 696 MB
terms.php



Быстрый ответ

Имя:

      
Для отправки сообщений необходимо включить JavaScript
Показать сообщения:    

Текущее время: 02-Дек 23:09

Часовой пояс: UTC + 3


Вы можете начинать темы
Вы можете отвечать на сообщения
Вы не можете редактировать свои сообщения
Вы не можете удалять свои сообщения
Вы не можете голосовать в опросах
Вы не можете прикреплять файлы к сообщениям
Вы можете скачивать файлы