Хуанмэйская опера / 大戏黄梅 [2010, Документальный, опера, культура, искусство, театр, история, музыка, SATRip] (1-10 серий из 10) CCTV


Статистика раздачи [Обновить пиров]
Размер:  3.14 GB   |    Зарегистрирован:  8 месяцев 18 дней   |    Скачан:  0 раз

Полного источника не было: Никогда

Личеров:  3  [  0 KB/s  ]   Подробная статистика пиров
 
   
 
 
 

[Цитировать]

Хуанмэйская опера / 大戏黄梅 Год выпуска: 2010
Страна: Китай
Жанр: Документальный, опера, культура, искусство, театр, история, музыка
Продолжительность: 10 х ~ 00:28:20
Перевод: Одноголосый закадровый
Русские субтитры: есть (Хардсаб - на непереведенные места)
Производство: CCTV (China Central Television), CNTV
Описание: Китай – это обширная и многонациональная страна. Здесь большое количество местных диалектов. Поэтому, помимо Пекинской оперы, в Китае еще есть местные оперы, разнообразные по своему колориту. Как показали исследования, по всей стране насчитывается 360 видов местных опер. Самые значимые из них – это пинцю (评剧), юецю или шаосинская опера (越剧), юйцю (豫剧), хуанмэйси или хуанмейская опера (黄梅戏) и кантонская опера (粤剧). Хуанмэйская опера сложилась на основе песен сборщиков чая, которые пели в провинциях Аньхой, Хубэй и Цзянси. В сезон сбора чая юноши и девушки создавали трудовые народные песни. Примерно в последней четверти XX в. эти песни превратились в народную оперу с определенными сюжетами. Такую оперу часто играли в районе Аньцин (пров. Аньхой). Заимствовав все положительное из других аньхойских музыкальных драм, используя мягкое, хорошо понятное на слух аньцинское наречие, Хуанмэйская опера стала новой музыкальной драмой Китая, наделенной ярким местным колоритом. В то время артистам приходилось играть в деревнях на временных сценических подмостках. Однако эта опера пользовалась горячей любовью простых людей. Ведь ее сюжеты были взяты из жизни. Только в 20-30 годы ХХ в. Хуанмэйскую оперу признали официально. Хуанмэйская опера, как одна из местных опер, отличается простонародным характером, мелодии ее просты, а сюжеты увлекательны. Зато танцы необычайно красивы. Она развивалась быстро и теперь уже стала одним из известных в стране и за рубежом видов китайской оперы. Артисты Хуанмэйской оперы поставили немало замечательных спектаклей, таких как "Любовь небожительницы", "Нюлян и Чжинюй", "Зять императора", "Супруги любуются фонарями", "Покос" и др...
качество: SATRip
формат: AVI
видеокодек: XviD
аудиокодек: MP3
Видео: MPEG-4 Visual, 704 х 416 (1,692), 25,000 кадров/сек, 1462 Кбит/сек, 0.200 бит/пиксель
Аудио: MPEG Audio Layer 3, 48,0 КГц, 128 Кбит/сек, 2 канала
Релиз-группа OLARRI & qsdyg

Список эпизодов

01. Колыбель хуанмэйской оперы поселок Шипай / 乐起石牌
02. Колоратура в опере / 花腔小戏
03. Вновь заходим в город Ичэн / 二进宜城
04. Труппа Шуанси / 双喜班
05. Сяоцыдян (История о небрачной любви) / 小辞店
06. Сочетание пекинской и хуанмэйской опер / 京黄联姻
07. Тяньсяньпэй (Свадьба богини) / 天仙配
08. Нюлан и Чжинюй (Волопас и Ткачиха) / 牛郎织女
09. Быстротекущие годы / 似水流年
10. Вторая жизнь хуанмэйской оперы / 梅开二度

MediaInfo

Общее
Полное имя : E:\неоформлені\Хуанмэйская опера\Хуанмэйская.опера.EP07.Тяньсяньпэй.(Свадьба.богини).2010.avi
Формат : AVI
Формат/Информация : Audio Video Interleave
Размер файла : 324 Мбайт
Продолжительность : 28 м.
Общий поток : 1599 Кбит/сек
Программа кодирования : VirtualDubMod 1.5.10.3 | www.virtualdub-fr.org || (build 2550/release)
Библиотека кодирования : VirtualDubMod build 2550/release
Видео
Идентификатор : 0
Формат : MPEG-4 Visual
Профиль формата : Advanced Simple@L5
Параметр BVOP формата : 2
Параметр QPel формата : Нет
Параметр GMC формата : Без точки перехода
Параметр матрицы формата : Выборочная
Режим смешивания : Сжатый битовый поток
Идентификатор кодека : XVID
Идентификатор кодека/Подсказка : XviD
Продолжительность : 28 м.
Битрейт : 1462 Кбит/сек
Ширина : 704 пикселя
Высота : 416 пикселей
Соотношение сторон : 1,692
Частота кадров : 25,000 кадров/сек
Цветовое пространство : YUV
Субдискретизация насыщенности : 4:2:0
Битовая глубина : 8 бит
Тип развёртки : Прогрессивная
Метод сжатия : С потерями
Бит/(Пиксели*Кадры) : 0.200
Размер потока : 296 Мбайт (91%)
Библиотека кодирования : XviD 65
Аудио
Идентификатор : 1
Формат : MPEG Audio
Версия формата : Version 1
Профиль формата : Layer 3
Идентификатор кодека : 55
Идентификатор кодека/Подсказка : MP3
Продолжительность : 28 м.
Вид битрейта : Постоянный
Битрейт : 128 Кбит/сек
Каналы : 2 канала
Частота : 48,0 КГц
Метод сжатия : С потерями
Размер потока : 26,0 Мбайт (8%)
Выравнивание : Соединение по промежуткам
Продолжительность промежутка : 40 мс. (1,00 видеокадр)
Время предзагрузки промежутка : 504 мс.
Библиотека кодирования : LAME3.99r
Настройки программы : -m s -V 4 -q 2 -lowpass 17 -b 128

Скриншоты

[teatrix.ru].t16953.torrent 
Торрент: Зарегистрирован [ 2016-03-17 00:27 ] · EE1DE8F33D913041E0014AEEE6AAE0E87BEC2361

Скачать .torrent

Скачать

17 KB

Статус: проверено
Скачан: 0 раз
Размер: 3.14 GB
terms.php



Быстрый ответ

Имя:

      
Для отправки сообщений необходимо включить JavaScript
Показать сообщения:    

Текущее время: 04-Дек 19:23

Часовой пояс: UTC + 3


Вы можете начинать темы
Вы можете отвечать на сообщения
Вы не можете редактировать свои сообщения
Вы не можете удалять свои сообщения
Вы не можете голосовать в опросах
Вы не можете прикреплять файлы к сообщениям
Вы можете скачивать файлы