Драгоценная почтовая марка за 10 лет / 十年一珍邮 [2007, Документальный, история, культура, филателия, SATRip] CCTV


Статистика раздачи [Обновить пиров]
Размер:  322 MB   |    Зарегистрирован:  8 месяцев 23 дня   |    Скачан:  0 раз

Полного источника не было: Никогда

Личеров:  3  [  0 KB/s  ]   Подробная статистика пиров
 
   
 
 
 

[Цитировать]

Драгоценная почтовая марка за 10 лет / 十年一珍邮 Год выпуска: 2007
Страна: Китай
Жанр: Документальный, история, культура, филателия
Продолжительность: 00:28:21
Перевод: Одноголосый закадровый
Русские субтитры: есть (Хардсаб - на непереведенные места)
Производство: CCTV (China Central Television), CNTV
Описание: 26 июня 2006 года в Пекине состоялось открытие 11-ой межправительственной конференции Всемирного Почтового Союза (ВПС). Различные страны представили свои марки. На звание лучшей марки претендовали 64 комплекта из 16 стран. От Китая были выдвинуты лучшие марки, выпущенные за последние 10 лет. Какие же интересные истории хранят эти марки? Сегодня в Китае наблюдается очередной, уже четвертый, бум коллекционирования марок и всего, что связано с почтовыми отправлениями. По статистике, сегодня более 7 миллионов коллекционеров в Китае. Пожалуй, трудно назвать еще другую страну, где бы относились к выпуску филателистической продукции так трепетно и изобретательно. Лучшие художники привлекаются к изданию почтовых миниатюр, сюжеты колоритны и несут в себе отпечаток культуры и истории Китая...
качество: SATRip
формат: AVI
видеокодек: XviD
аудиокодек: MP3
Видео: MPEG-4 Visual, XviD, 704 х 528 (4:3), 25,000 кадров/сек, 1449 Кбит/сек, 0.156 бит/пиксель
Аудио: MPEG Audio Layer 3, 48,0 КГц, 128 Кбит/сек, 2 канала
Релиз-группа OLARRI & qsdyg

MediaInfo

Общее
Полное имя : E:\torrent\Драгоценная почтовая марка за 10 лет.avi
Формат : AVI
Формат/Информация : Audio Video Interleave
Размер файла : 322 Мбайт
Продолжительность : 28 м.
Общий поток : 1586 Кбит/сек
Программа кодирования : VirtualDubMod 1.5.10.3 | www.virtualdub-fr.org || (build 2550/release)
Библиотека кодирования : VirtualDubMod build 2550/release
Видео
Идентификатор : 0
Формат : MPEG-4 Visual
Профиль формата : Advanced Simple@L5
Параметр BVOP формата : 2
Параметр QPel формата : Нет
Параметр GMC формата : Без точки перехода
Параметр матрицы формата : Выборочная
Режим смешивания : Сжатый битовый поток
Идентификатор кодека : XVID
Идентификатор кодека/Подсказка : XviD
Продолжительность : 28 м.
Битрейт : 1449 Кбит/сек
Ширина : 704 пикселя
Высота : 528 пикселей
Соотношение сторон : 4:3
Частота кадров : 25,000 кадров/сек
Цветовое пространство : YUV
Субдискретизация насыщенности : 4:2:0
Битовая глубина : 8 бит
Тип развёртки : Прогрессивная
Метод сжатия : С потерями
Бит/(Пиксели*Кадры) : 0.156
Размер потока : 294 Мбайт (91%)
Библиотека кодирования : XviD 65
Аудио
Идентификатор : 1
Формат : MPEG Audio
Версия формата : Version 1
Профиль формата : Layer 3
Идентификатор кодека : 55
Идентификатор кодека/Подсказка : MP3
Продолжительность : 28 м.
Вид битрейта : Постоянный
Битрейт : 128 Кбит/сек
Каналы : 2 канала
Частота : 48,0 КГц
Метод сжатия : С потерями
Размер потока : 26,0 Мбайт (8%)
Выравнивание : Соединение по промежуткам
Продолжительность промежутка : 40 мс. (1,00 видеокадр)
Время предзагрузки промежутка : 504 мс.
Библиотека кодирования : LAME3.99r
Настройки программы : -m s -V 4 -q 2 -lowpass 17 -b 128

Скриншоты

[teatrix.ru].t16954.torrent 
Торрент: Зарегистрирован [ 2016-03-17 00:27 ] · 6CA9E015B4FDD58B330D19094B8431A032F37487

Скачать .torrent

Скачать

13 KB

Статус: проверено
Скачан: 0 раз
Размер: 322 MB
terms.php



Быстрый ответ

Имя:

      
Для отправки сообщений необходимо включить JavaScript
Показать сообщения:    

Текущее время: 10-Дек 00:22

Часовой пояс: UTC + 3


Вы можете начинать темы
Вы можете отвечать на сообщения
Вы не можете редактировать свои сообщения
Вы не можете удалять свои сообщения
Вы не можете голосовать в опросах
Вы не можете прикреплять файлы к сообщениям
Вы можете скачивать файлы