Пестрая лента. Всеволод Санаев. Ваш отец и друг (Мария Визитей) [2009, Документальный цикл, познавательный, IPTV]


Статистика раздачи [Обновить пиров]
Размер:  623 MB   |    Зарегистрирован:  8 месяцев 21 день   |    Скачан:  0 раз

Полного источника не было: Никогда

Личеров:  3  [  0 KB/s  ]   Подробная статистика пиров
 
   
 
 
 

[Цитировать]

Пестрая лента. Всеволод Санаев. Ваш отец и друг
Год выпуска: 2009
Страна: Россия
Жанр: Документальный цикл, познавательный
Продолжительность: 00:45:09
Перевод: Не требуется
Русские субтитры: нет
Релиз:
Рип: marfa12
Режиссер: Мария Визитей
Описание: Свой творческий путь на сцене Всеволод Санаев начал в 30-е годы прошлого века. В 1931–1932 годах был актером вспомогательного состава Театра драмы в родной Туле.
После окончания в 1937 году ГИТИСа поступил в труппу МХАТа. На сцене Художественного театра он был занят в спектаклях классического и современного на тот момент репертуара: «Горе от ума», «Гроза», «На дне», «Любовь Яровая», «Фронт».
В 1943 году Санаев перешёл в Театр имени Моссовета, где среди постановок с его участием были «Встреча в темноте» и «Бранденбургские ворота».
В Театре-студии киноактера, где он служил с 1946 года, Всеволод Васильевич играл в спектаклях «Молодая гвардия», «Завтрак у предводителя», «Софья Ковалевская» и других.
Кинокарьера актера началась с фильма «Волга-Волга», снятого в 1938 году. За долгие годы творческой жизни он сыграл не в одном десятке фильмов. Помимо роли Зорина в трилогии «Возвращение "Святого Луки"», «Черный принц» и «Версия полковника Зорина», Санаев известен по фильмам Василия Шукшина «Ваш сын и брат», «Думы» и «Печки-лавочки». Среди других его работ – образы в фильмах – «Сердца четырех», «Разные судьбы», «Оптимистическая трагедия», «Это случилось в милиции», «Забытая мелодия для флейты».

В пеередаче участвуют: Елена Санаева, Павел Санаев, Лидия Федосеева-Шукшина, Нина Гребешкова, Наталья Белохвостикова, Николай Иванов, Сергей Никоненко, Владимир Наумов.
Доп. информация: Автор и ведущий: Сергей Урсуляк
Сэмпл: http://multi-up.com/840222
качество: IPTV
формат: AVI
видеокодек: XviD
аудиокодек: MP3
Видео: MPEG-4, 704x528, (4:3), 25.000 fps, 1794 kbps, 0.193 bit/pixel
Аудио: MPEG-1 Layer 3, 128 kbps, 48000 Hz; 2 ch;

MediaInfo

General
Complete name : C:Пестрая лента. Всеволод Санаев. Ваш отец и друг.avi
Format : AVI
Format/Info : Audio Video Interleave
File size : 623 MiB
Duration : 45mn 9s
Overall bit rate : 1 930 Kbps
Writing library : VirtualDub build 30091/release
Video
ID : 0
Format : MPEG-4 Visual
Format profile : Simple@L3
Format settings, BVOP : 2
Format settings, QPel : No
Format settings, GMC : No warppoints
Format settings, Matrix : Default (MPEG)
Codec ID : XVID
Codec ID/Hint : XviD
Duration : 45mn 9s
Bit rate : 1 792 Kbps
Width : 704 pixels
Height : 528 pixels
Display aspect ratio : 4:3
Frame rate : 25.000 fps
Color space : YUV
Chroma subsampling : 4:2:0
Bit depth : 8 bits
Scan type : Progressive
Compression mode : Lossy
Bits/(Pixel*Frame) : 0.193
Stream size : 579 MiB (93%)
Writing library : XviD 1.1.0 Beta2 (UTC 2005-04-04)
Audio
ID : 1
Format : MPEG Audio
Format version : Version 1
Format profile : Layer 3
Mode : Joint stereo
Mode extension : MS Stereo
Codec ID : 55
Codec ID/Hint : MP3
Duration : 45mn 9s
Bit rate mode : Constant
Bit rate : 128 Kbps
Channel(s) : 2 channels
Sampling rate : 48.0 KHz
Compression mode : Lossy
Stream size : 41.3 MiB (7%)
Alignment : Split accross interleaves
Interleave, duration : 40 ms (1.00 video frame)
Interleave, preload duration : 500 ms

Скриншоты

[teatrix.ru].t16955.torrent 
Торрент: Зарегистрирован [ 2016-03-17 00:30 ] · 84A51E1B0520DF1338242F29C77B4829C462F296

Скачать .torrent

Скачать

13 KB

Статус: проверено
Скачан: 0 раз
Размер: 623 MB
terms.php



Показать сообщения:    

Текущее время: 07-Дек 19:26

Часовой пояс: UTC + 3


Вы не можете начинать темы
Вы не можете отвечать на сообщения
Вы не можете редактировать свои сообщения
Вы не можете удалять свои сообщения
Вы не можете голосовать в опросах
Вы не можете прикреплять файлы к сообщениям
Вы можете скачивать файлы