Охотники за мифами / Myth Hunters / Raiders Of The Lost Past (1-13 серии из 13) (Ned Parker) [2012, документальный сериал, SATRip] VO (SDI Media)


Статистика раздачи [Обновить пиров]
Размер:  10.55 GB   |    Зарегистрирован:  8 месяцев 24 дня   |    Скачан:  0 раз

Полного источника не было: Никогда

Личеров:  3  [  0 KB/s  ]   Подробная статистика пиров
 
   
 
 
 

[Цитировать]

Охотники за мифами / Myth Hunters / Raiders Of The Lost Past (1-13 серии из 13)
Год выпуска: 2012
Страна: Великобритания
Жанр: документальный сериал
Продолжительность: ~50мин
Перевод: Студийный (одноголосый закадровый), "SDI Media" - Роман Антонович, Юрий Большаков
Русские субтитры: нет
Режиссер: Ned Parker
Описание: Насколько сильно вы готовы рискнуть ради поиска сокровищ, которые тысячелетиями были сокрыты от человеческих глаз?
В этом новом эксклюзивном 13-серийном цикле мы отправимся назад, в золотой век охотников за сокровищами, чтобы проследить за легендарными, бесстрашными и одержимыми исследователями, целиком посвятившими себя поиску малейших следов легендарного сокровища. Некоторые из разыскиваемых предметов обладают магической силой, другие позарез требовались верховному правителю, о третьих и вовсе говорилось лишь в древних пророчествах.
Сериал "В поисках утраченного прошлого" показывает нам розыски целых гор золота, поиск тайны обладания неограниченной властью, поиски секрета вечной жизни. Для большинства людей эти вопросы - фантастика из фильмов вроде "Индианы Джонс", однако сериал рассказывает настоящие истории реальных людей, которые однажды поверили в легенду.
Сериал начинается Гиммлером и его гренландскими экспедициями за Святым Граалем и заканчивается 21 веком и поисками Ноева Ковчега.
Доп. информация: Оригинальное название док.сериала - Raiders Of The Lost Past
Сэмпл: http://multi-up.com/841028
Ссылка на предыдущие и альтернативные раздачи
Качество: SATRip
Формат: MP4
Видеокодек: H.264
Aудиокодек: AC3
Видео: H.264, 2000 Кбит/сек, 720x400, 25fps
Аудио: Русский: AC3, 2 ch, 48,0 КГц, 192 Кбит/сек
Английский: AC3, 2 ch, 48,0 КГц, 192 Кбит/сек

Список выпусков/серий

1) Hitler and the Spear of Destiny / Гитлер и Копье Судьбы
2) The Quest for Noah's Ark / В поисках Ноева Ковчега
3) The Missing Eighth Wonder of the World / Утраченное восьмое чудо света
4) The Hunt for Pirate Treasure / В поисках пиратских сокровищ
5) The Real King Solomon's Mines / Настоящие копи Царя Соломона
6) The Lost Sword of the Samurai / Пропавший самурайский меч
7) Himmler and the Holy Grail / Гиммлер и Святой Грааль
8) The Hunt for the Book of Spells / В поиске Книги Заклинаний
9) The Lost City of El Dorado / Таинственный город Эльдорадо
10) The Nazis and the Book of Power / Нацисты и Книга Власти
11) Raider Ron and the Lost Ark / Искатель Рон и Ковчег Завета
12) Anna and the Crystal Skulls / Поиски Хрустальных Черепов
13) The Quest For The True Cross / Поиск Истинного Креста

MediaInfo

Complete name : Охотники за мифами. Myth Hunters (Raiders Of The Lost Past)\Raiders Of The Lost Past - 1x13 The Quest For The True Cross.mp4
Format : MPEG-4
Format profile : Base Media / Version 2
Codec ID : mp42
File size : 820 MiB
Duration : 48mn 23s
Overall bit rate : 2 369 Kbps
Encoded date : UTC 2013-03-04 06:18:52
Tagged date : UTC 2013-03-04 06:49:21
Writing application : HandBrake 0.9.8 2012071700
Video
ID : 1
Format : AVC
Format/Info : Advanced Video Codec
Format profile : Main@L3.0
Format settings, CABAC : Yes
Format settings, ReFrames : 4 frames
Codec ID : avc1
Codec ID/Info : Advanced Video Coding
Duration : 48mn 23s
Bit rate mode : Variable
Bit rate : 2 000 Kbps
Width : 720 pixels
Height : 400 pixels
Display aspect ratio : 16:9
Frame rate mode : Constant
Frame rate : 25.000 fps
Color space : YUV
Chroma subsampling : 4:2:0
Bit depth : 8 bits
Scan type : Progressive
Bits/(Pixel*Frame) : 0.278
Stream size : 686 MiB (84%)
Writing library : x264 core 120
Encoding settings : cabac=1 / ref=3 / deblock=1:-1:-1 / analyse=0x1:0x111 / me=hex / subme=8 / psy=1 / psy_rd=1.00:0.00 / mixed_ref=1 / me_range=16 / chroma_me=1 / trellis=1 / 8x8dct=0 / cqm=0 / deadzone=21,11 / fast_pskip=1 / chroma_qp_offset=-2 / threads=6 / sliced_threads=0 / nr=0 / decimate=1 / interlaced=0 / bluray_compat=0 / constrained_intra=0 / bframes=3 / b_pyramid=2 / b_adapt=1 / b_bias=0 / direct=1 / weightb=1 / open_gop=0 / weightp=1 / keyint=250 / keyint_min=25 / scenecut=40 / intra_refresh=0 / rc_lookahead=10 / rc=abr / mbtree=1 / bitrate=2000 / ratetol=1.0 / qcomp=0.60 / qpmin=3 / qpmax=69 / qpstep=4 / ip_ratio=1.40 / aq=1:1.00
Encoded date : UTC 2013-03-04 06:18:52
Tagged date : UTC 2013-03-04 06:49:21
Color primaries : BT.601 NTSC
Transfer characteristics : BT.709
Matrix coefficients : BT.601
Audio #1
ID : 2
Format : AC-3
Format/Info : Audio Coding 3
Mode extension : CM (complete main)
Format settings, Endianness : Big
Codec ID : ac-3
Duration : 48mn 23s
Bit rate mode : Constant
Bit rate : 192 Kbps
Channel(s) : 2 channels
Channel positions : Front: L R
Sampling rate : 48.0 KHz
Bit depth : 16 bits
Compression mode : Lossy
Delay relative to video : 80ms
Stream size : 66.5 MiB (8%)
Language : Russian
Encoded date : UTC 2013-03-04 06:18:52
Tagged date : UTC 2013-03-04 06:49:21
Audio #2
ID : 3
Format : AC-3
Format/Info : Audio Coding 3
Mode extension : CM (complete main)
Format settings, Endianness : Big
Codec ID : ac-3
Duration : 48mn 23s
Bit rate mode : Constant
Bit rate : 192 Kbps
Channel(s) : 2 channels
Channel positions : Front: L R
Sampling rate : 48.0 KHz
Bit depth : 16 bits
Compression mode : Lossy
Delay relative to video : 80ms
Stream size : 66.5 MiB (8%)
Language : English
Encoded date : UTC 2013-03-04 06:18:52
Tagged date : UTC 2013-03-04 06:49:21

Скриншоты

Внимание! Раздача ведётся путём добавления новых выпусков

Внимание! Раздача ведётся путём добавления новых выпусков; при каждом добавлении создаётся новый торрент. Чтобы начать докачку нового выпуска, пользователям необходимо сделать следующее:
(1) остановить скачивание,
(2) удалить старый торрент у себя из клиента (старые серии удалять не надо),
(3) скачать новый торрент и запустить его у себя в клиенте вместо старого, при этом указать клиенту путь в старую папку куда и должно происходить скачивание новых выпусков.
Ваш клиент при этом должен произвести хеширование (проверку) старой папки (если не производит сам - помогите ему сделать это). В результате он будет докачивать только те выпуски, которых у Вас ещё нет. Старые выпуски при этом не удаляются, а продолжают раздаваться!
Eсли Вы уже удалили старые выпуски, то предотвратить их повторную закачку можно, сняв галочки в соответствующих местах при запуске нового торрента. По возможности, желательно не удалять старые выпуски как можно дольше, чтобы релизёр не только продолжал раздавать старые выпуски, но и смог сконцентрироваться на новых.
[teatrix.ru].t16961.torrent 
Торрент: Зарегистрирован [ 2016-03-17 00:29 ] · 9E698FBA086981C2FF580EE052AE4799ABC73F87

Скачать .torrent

Скачать

54 KB

Статус: проверено
Скачан: 0 раз
Размер: 10.55 GB
terms.php



Быстрый ответ

Имя:

      
Для отправки сообщений необходимо включить JavaScript
Показать сообщения:    

Текущее время: 10-Дек 11:56

Часовой пояс: UTC + 3


Вы можете начинать темы
Вы можете отвечать на сообщения
Вы не можете редактировать свои сообщения
Вы не можете удалять свои сообщения
Вы не можете голосовать в опросах
Вы не можете прикреплять файлы к сообщениям
Вы можете скачивать файлы