Сделай погромче (История хаус-музыки) (3 of 3) / Pump Up The Volume (History Of House Music) (Carl Hindmarch) [2001, документальный, музыкальный, TVRip]


Статистика раздачи [Обновить пиров]
Размер:  1.59 GB   |    Зарегистрирован:  8 месяцев 19 дней   |    Скачан:  1 раз

Полного источника не было: 6 дней

Личеров:  3  [  0 KB/s  ]   Подробная статистика пиров
 
   
 
 
 

[Цитировать]

Сделай погромче (История хаус-музыки) (3 of 3) / Pump Up The Volume (History Of House Music)
Год выпуска: 2001
Страна: Великобритания
Жанр: документальный, музыкальный
Продолжительность: 00:49:16 + 00:48:46 + 00:49:01
Перевод: Одноголосый закадровый
Русские субтитры: да
Режиссер: Carl Hindmarch
Описание: Документальный телефильм об истории house-музыки.
Все началось в середине 70-х с открытия клубов "Garage" (отсюда появился стиль garage) и "Warehouse" в США. Новые фанаты стали требовать в музыкальных магазинах треки, которые слышали в клубе "Warehouse" (warehouse music). Затем сократили до "house". Так появилось понятие house music, означавшее всю музыку, которая играла только в клубе "Warehouse" (на тот момент единственном с таким репертуаром).
Об этом и многом другом вспоминают и рассказывают люди, вошедшие в историю house.
Доп. информация:
Перевод, озвучание: Константин Кривоногов (konstk@yandex.ru)
качество: TVRip
формат: AVI
видеокодек: XviD
аудиокодек: MP3

Список выпусков/серий

1. Time to Jack
2. Can You Feel It
3. From Hardcore to Handbag

Серия 1 - Time To Jack / Время джека

Видео: Xvid 480x304 25.00fps 1146Kbps
Аудио (RUS) : MPEG Audio Layer 3 48000Hz stereo 160Kbps
Аудио (ENG) : MPEG Audio Layer 3 48000Hz stereo 117Kbps

MediaInfo

General
Complete name : Y:\my_torrents\Pump_Up_The_Volume\pump_up_the_volume_1.avi
Format : AVI
Format/Info : Audio Video Interleave
File size : 509 MiB
Duration : 49mn 16s
Overall bit rate : 1 445 Kbps
Writing application : Nandub v1.0rc2
Writing library : Nandub build 1853/release
Video
ID : 0
Format : MPEG-4 Visual
Format profile : Advanced Simple@L5
Format settings, BVOP : 1
Format settings, QPel : No
Format settings, GMC : No warppoints
Format settings, Matrix : Custom
Codec ID : XVID
Codec ID/Hint : XviD
Duration : 49mn 16s
Bit rate : 1 146 Kbps
Width : 480 pixels
Height : 304 pixels
Display aspect ratio : 1.579
Frame rate : 25.000 fps
Color space : YUV
Chroma subsampling : 4:2:0
Bit depth : 8 bits
Scan type : Progressive
Compression mode : Lossy
Bits/(Pixel*Frame) : 0.314
Stream size : 404 MiB (79%)
Writing library : XviD 1.2.0.dev47 (UTC 2006-11-01)
Audio #1
ID : 1
Format : MPEG Audio
Format version : Version 1
Format profile : Layer 3
Mode : Joint stereo
Mode extension : MS Stereo
Codec ID : 55
Codec ID/Hint : MP3
Duration : 49mn 16s
Bit rate mode : Constant
Bit rate : 160 Kbps
Channel(s) : 2 channels
Sampling rate : 48.0 KHz
Compression mode : Lossy
Stream size : 56.4 MiB (11%)
Alignment : Aligned on interleaves
Interleave, duration : 24 ms (0.60 video frame)
Interleave, preload duration : 480 ms
Writing library : LAME3.98r
Encoding settings : -m j -V 4 -q 2 -lowpass 17.5 -b 160
Audio #2
ID : 2
Format : MPEG Audio
Codec ID : 55
Codec ID/Hint : MP3
Duration : 49mn 16s
Bit rate : 117 Kbps
Channel(s) : 2 channels
Sampling rate : 48.0 KHz
Compression mode : Lossy
Stream size : 41.4 MiB (8%)
Alignment : Split accross interleaves
Interleave, duration : 24 ms (0.60 video frame)
Interleave, preload duration : 155 ms

Скриншоты



Серия 2 - Can You Feel It / Чувствуешь?

Видео: Xvid 544x352 25.00fps 1303Kbps
Аудио (RUS) : MPEG Audio Layer 3 48000Hz stereo 160Kbps
Аудио (ENG) : MPEG Audio Layer 3 48000Hz stereo 117Kbps

MediaInfo

General
Complete name : D:\pump_up_the_volume_2.avi
Format : AVI
Format/Info : Audio Video Interleave
File size : 559 MiB
Duration : 48mn 46s
Overall bit rate : 1 601 Kbps
Movie name : Pump Up The Volume S01E02
Subject : Pump Up The Volume S01E02
Writing application : Nandub v1.0rc2
Writing library : Nandub build 1853/release
Comment : Russian translation by Konstantin Krivonogov (konstk@yandex.ru)
Video
ID : 0
Format : MPEG-4 Visual
Format profile : Advanced Simple@L5
Format settings, BVOP : 1
Format settings, QPel : No
Format settings, GMC : No warppoints
Format settings, Matrix : Custom
Codec ID : XVID
Codec ID/Hint : XviD
Duration : 48mn 46s
Bit rate : 1 303 Kbps
Width : 544 pixels
Height : 352 pixels
Display aspect ratio : 3:2
Frame rate : 25.000 fps
Color space : YUV
Chroma subsampling : 4:2:0
Bit depth : 8 bits
Scan type : Progressive
Compression mode : Lossy
Bits/(Pixel*Frame) : 0.272
Stream size : 455 MiB (81%)
Writing library : XviD 1.2.0.dev47 (UTC 2006-11-01)
Audio #1
ID : 1
Format : MPEG Audio
Format version : Version 1
Format profile : Layer 3
Mode : Joint stereo
Mode extension : MS Stereo
Codec ID : 55
Codec ID/Hint : MP3
Duration : 48mn 44s
Bit rate mode : Constant
Bit rate : 160 Kbps
Channel(s) : 2 channels
Sampling rate : 48.0 KHz
Compression mode : Lossy
Stream size : 55.8 MiB (10%)
Alignment : Aligned on interleaves
Interleave, duration : 24 ms (0.60 video frame)
Interleave, preload duration : 480 ms
Writing library : LAME3.98r
Encoding settings : -m j -V 4 -q 2 -lowpass 17.5 -b 160
Audio #2
ID : 2
Format : MPEG Audio
Codec ID : 55
Codec ID/Hint : MP3
Duration : 48mn 46s
Bit rate : 117 Kbps
Channel(s) : 2 channels
Sampling rate : 48.0 KHz
Compression mode : Lossy
Stream size : 40.7 MiB (7%)
Alignment : Split accross interleaves
Interleave, duration : 24 ms (0.60 video frame)
Interleave, preload duration : 155 ms

Скриншоты



Серия 3 - From Hardcore To Handbag / От хардкора до гламура

Видео: Xvid 592x384 25.00fps 1592Kbps
Аудио (RUS) : MPEG Audio Layer 3 48000Hz stereo 160Kbps
Аудио (ENG) : MPEG Audio Layer 3 48000Hz stereo 118Kbps

MediaInfo

General
Complete name : D:\pump_up_the_volume_3.avi
Format : AVI
Format/Info : Audio Video Interleave
File size : 558 MiB
Duration : 49mn 1s
Overall bit rate : 1 592 Kbps
Writing application : Nandub v1.0rc2
Writing library : Nandub build 1853/release
Video
ID : 0
Format : MPEG-4 Visual
Format profile : Advanced Simple@L5
Format settings, BVOP : 1
Format settings, QPel : No
Format settings, GMC : No warppoints
Format settings, Matrix : Custom
Codec ID : XVID
Codec ID/Hint : XviD
Duration : 49mn 1s
Bit rate : 1 294 Kbps
Width : 592 pixels
Height : 384 pixels
Display aspect ratio : 3:2
Frame rate : 25.000 fps
Color space : YUV
Chroma subsampling : 4:2:0
Bit depth : 8 bits
Scan type : Progressive
Compression mode : Lossy
Bits/(Pixel*Frame) : 0.228
Stream size : 454 MiB (81%)
Writing library : XviD 1.2.0.dev47 (UTC 2006-11-01)
Audio #1
ID : 1
Format : MPEG Audio
Format version : Version 1
Format profile : Layer 3
Mode : Joint stereo
Mode extension : MS Stereo
Codec ID : 55
Codec ID/Hint : MP3
Duration : 48mn 58s
Bit rate mode : Constant
Bit rate : 160 Kbps
Channel(s) : 2 channels
Sampling rate : 44.1 KHz
Compression mode : Lossy
Stream size : 56.0 MiB (10%)
Alignment : Aligned on interleaves
Interleave, duration : 26 ms (0.65 video frame)
Interleave, preload duration : 496 ms
Writing library : LAME3.98r
Encoding settings : -m j -V 4 -q 2 -lowpass 17.5 -b 160
Audio #2
ID : 2
Format : MPEG Audio
Codec ID : 55
Codec ID/Hint : MP3
Duration : 49mn 1s
Bit rate : 118 Kbps
Channel(s) : 2 channels
Sampling rate : 48.0 KHz
Compression mode : Lossy
Stream size : 41.5 MiB (7%)
Alignment : Split accross interleaves
Interleave, duration : 24 ms (0.60 video frame)
Interleave, preload duration : 153 ms

Скриншоты



Внимание! Раздача ведётся путём добавления новых выпусков

Внимание! Раздача ведётся путём добавления новых выпусков; при каждом добавлении создаётся новый торрент. Чтобы начать докачку нового выпуска, пользователям необходимо сделать следующее:
(1) остановить скачивание,
(2) удалить старый торрент у себя из клиента (старые серии удалять не надо),
(3) скачать новый торрент и запустить его у себя в клиенте вместо старого, при этом указать клиенту путь в старую папку куда и должно происходить скачивание новых выпусков.
Ваш клиент при этом должен произвести хеширование (проверку) старой папки (если не производит сам - помогите ему сделать это). В результате он будет докачивать только те выпуски, которых у Вас ещё нет. Старые выпуски при этом не удаляются, а продолжают раздаваться!
Eсли Вы уже удалили старые выпуски, то предотвратить их повторную закачку можно, сняв галочки в соответствующих местах при запуске нового торрента. По возможности, желательно не удалять старые выпуски как можно дольше, чтобы релизёр не только продолжал раздавать старые выпуски, но и смог сконцентрироваться на новых.
Как закачать отдельный файл из торрента или докачать ранее пропущенные файлы торрента

История обновлений торрента

30.03.2013 - Добавлена вторая серия.
24.05.2013 - Добавлена третья, финальная серия.
25.05.2013 - Добавлены русские субтитры ко всём трём частям.
Добавлены русские субтитры ко всём трём частям. Скачайте заново торрент-файл
[teatrix.ru].t16962.torrent 
Торрент: Зарегистрирован [ 2016-03-17 00:27 ] · BF0293511EFD6A89D83DA78EA9F26B561DF7C58E

Скачать .torrent

Скачать

17 KB

Статус: проверено
Скачан: 1 раз
Размер: 1.59 GB
terms.php



Быстрый ответ

Имя:

      
Для отправки сообщений необходимо включить JavaScript
Показать сообщения:    

Текущее время: 05-Дек 05:24

Часовой пояс: UTC + 3


Вы можете начинать темы
Вы можете отвечать на сообщения
Вы не можете редактировать свои сообщения
Вы не можете удалять свои сообщения
Вы не можете голосовать в опросах
Вы не можете прикреплять файлы к сообщениям
Вы можете скачивать файлы