Святыня китайского даосизма Гора Удан / 问道武当 (Гао Фэн, Ли Фапин, Чу Хунся) [2009, Документальный, история, культура, этнография, SATRip] (1-7 серий из 7) CCTV


Статистика раздачи [Обновить пиров]
Размер:  3.39 GB   |    Зарегистрирован:  8 месяцев 22 дня   |    Скачан:  0 раз

Полного источника не было: Никогда

Личеров:  3  [  0 KB/s  ]   Подробная статистика пиров
 
   
 
 
 

[Цитировать]

Святыня китайского даосизма Гора Удан / 问道武当 Год выпуска: 2009
Страна: Китай
Производство: CCTV (China Central Television), CNTV
Жанр: Документальный, история, культура, этнография
Продолжительность: 7 х ~ 00:47:30
Перевод: Одноголосый закадровый
Русские субтитры: есть (Хардсаб - на непереведенные места)
Режиссер: Гао Фэн, Ли Фапин, Чу Хунся
Описание: Даосизм - исконно китайская религия. Он насчитывает 1800 лет. Его последователей называют даосами. Даосы поклоняются "дао", сверхъестественному предвечному началу; они верят, что все люди путем психофизического самосовершенствования могут стать бессмертными или обладающими вечной молодостью святыми. Даосы любят заниматься китайской гимнастикой "у-шу". В мире много гор, но гор, представляющих культурное наследие страны или всего человечества, встречается не так уж много. Горы Удан-шань как раз относятся к таким вершинам Земли. Горы Удан-шань являются святыней китайского даосизма. Они расположены в северо-западной части центральной провинции Китая Хубэй. На протяжении нескольких сотен лет горы Удан-шань известны своими причудливыми пиками и великолепными даоскими святынями. Архитектурные ансамбли в горах Удан-шань называют сооружениями, построенными между вершинами, хребтами, на склонах между скалами и ручьев. В 1994 году архитектурные ансамбли в Удан-шане были включены ЮНЕСКО в Каталог мирового культурного наследия...
качество: SATRip
формат: AVI
видеокодек: XviD
аудиокодек: MP3
Видео: MPEG-4 Visual, XviD, 704 х 416 (1,692), 25,000 кадров/сек, 1402 Кбит/сек, 0.191 бит/пикс
Аудио: MP3, 48,0 КГц, 128 Кбит/сек, 2 канала
Релиз-группа OLARRI & qsdyg

MediaInfo

Общее
Полное имя : D:\torrent\Святыня китайского даосизма Гора Удан\Святыня.китайского.даосизма.Гора.Удан.EP03.2009.avi
Формат : AVI
Формат/Информация : Audio Video Interleave
Размер файла : 524 Мбайт
Продолжительность : 47 м.
Общий поток : 1540 Кбит/сек
Программа кодирования : VirtualDubMod 1.5.10.3 | www.virtualdub-fr.org || (build 2550/release)
Библиотека кодирования : VirtualDubMod build 2550/release
Видео
Идентификатор : 0
Формат : MPEG-4 Visual
Профиль формата : Advanced Simple@L5
Параметр BVOP формата : 2
Параметр QPel формата : Нет
Параметр GMC формата : Без точки перехода
Параметр матрицы формата : Выборочная
Идентификатор кодека : XVID
Идентификатор кодека/Подсказка : XviD
Продолжительность : 47 м.
Битрейт : 1402 Кбит/сек
Ширина : 704 пикселя
Высота : 416 пикселей
Соотношение сторон : 1,692
Частота кадров : 25,000 кадров/сек
Цветовое пространство : YUV
Субдискретизация насыщенности : 4:2:0
Битовая глубина : 8 бит
Тип развёртки : Прогрессивная
Метод сжатия : С потерями
Бит/(Пиксели*Кадры) : 0.191
Размер потока : 477 Мбайт (91%)
Библиотека кодирования : XviD 65
Аудио
Идентификатор : 1
Формат : MPEG Audio
Версия формата : Version 1
Профиль формата : Layer 3
Идентификатор кодека : 55
Идентификатор кодека/Подсказка : MP3
Продолжительность : 47 м.
Вид битрейта : Постоянный
Битрейт : 128 Кбит/сек
Каналы : 2 канала
Частота : 48,0 КГц
Метод сжатия : С потерями
Размер потока : 43,6 Мбайт (8%)
Выравнивание : Соединение по промежуткам
Продолжительность промежутка : 40 мс. (1,00 видеокадр)
Время предзагрузки промежутка : 504 мс.
Библиотека кодирования : LAME3.99r
Настройки программы : -m s -V 4 -q 2 -lowpass 17 -b 128

Скриншоты

[teatrix.ru].t16964.torrent 
Торрент: Зарегистрирован [ 2016-03-17 00:29 ] · 1AE2FF98835DF3F8F24FAA794626CB113CA9F224

Скачать .torrent

Скачать

18 KB

Статус: проверено
Скачан: 0 раз
Размер: 3.39 GB
terms.php



Быстрый ответ

Имя:

      
Для отправки сообщений необходимо включить JavaScript
Показать сообщения:    

Текущее время: 08-Дек 03:16

Часовой пояс: UTC + 3


Вы можете начинать темы
Вы можете отвечать на сообщения
Вы не можете редактировать свои сообщения
Вы не можете удалять свои сообщения
Вы не можете голосовать в опросах
Вы не можете прикреплять файлы к сообщениям
Вы можете скачивать файлы