Музыкальный иллюминатор. Дэвид Боуи (Алексей Титов) [2011, Документальный, DVB]


Статистика раздачи [Обновить пиров]
Размер:  695 MB   |    Зарегистрирован:  8 месяцев 19 дней   |    Скачан:  0 раз

Полного источника не было: Никогда

Личеров:  3  [  0 KB/s  ]   Подробная статистика пиров
 
   
 
 
 

[Цитировать]

Музыкальный иллюминатор. Дэвид Боуи
Год выпуска: 2011
Производство: ООО «Альтаир»
Жанр: Документальный
Продолжительность: 00:25:59
Перевод: Не требуется
Русские субтитры: нет
Автор и ведущий: Александр Лоевский
Режиссер: Алексей Титов
Описание: Дэ́вид Бо́уи — британский рок-музыкант, певец, продюсер, звукорежиссёр, композитор, автор песен, художник, актёр. На протяжении пятидесяти лет занимается музыкальным творчеством и часто меняет имидж, поэтому его называют «хамелеоном рок-музыки». При этом Боуи удаётся сохранять собственный узнаваемый стиль, успешно совмещая его с актуальными музыкальными направлениями. Боуи считается новатором, в частности, благодаря своим работам 1970-х. Он оказал влияние на многих музыкантов, известен своим характерным голосом и интеллектуальной глубиной созданных им работ.
В 2002 году в опросе Би-би-си «100 величайших британцев» Боуи занял 29-е место. На протяжении своей карьеры он продал более 136 миллионов пластинок, тем самым войдя в десятку самых успешных артистов в истории популярной музыки Великобритании. Шесть его альбомов входят в список «500 величайших альбомов всех времён» по версии журнала Rolling Stone (причём первые три из них вышли подряд в период с 1972—1973, остальные три — в 1976—1977 годы). В 2004 году журнал Rolling Stone поставил его на 39-е место в списке «100 величайших исполнителей рок-музыки всех времён» и на 23 место в списке «100 величайших вокалистов всех времён».

качество: DVB
формат: TS
видеокодек: MPEG2
аудиокодек: MP2
Видео: MPEG2 Video 720x576 (4:3) 25.00fps Bit rate 3500Kbps Constant Bits/(Pixel*Frame) 0.338
Аудио: MPEG Audio 48.0 KHz 2ch 192kbps

MediaInfo

General
Complete name : E:\torrent\Музыкальный иллюминатор. David Bowie.mpg
Format : MPEG-PS
File size : 695 MiB
Duration : 25mn 59s
Overall bit rate : 3 740 Kbps
Writing library : (c) 1998-2011 Womble Multimedia, Inc. / MPEG Video Wizard DVD 5.0.1.100 (03/2011) / Dec 15 2011
Video
ID : 224 (0xE0)
Format : MPEG Video
Format version : Version 2
Format profile : Main@Main
Format settings, BVOP : Yes
Format settings, Matrix : Default
Format settings, GOP : M=3, N=24
Duration : 25mn 59s
Bit rate mode : Constant
Bit rate : 3 500 Kbps
Width : 720 pixels
Height : 576 pixels
Display aspect ratio : 4:3
Frame rate : 25.000 fps
Standard : PAL
Color space : YUV
Chroma subsampling : 4:2:0
Bit depth : 8 bits
Scan type : Interlaced
Scan order : Top Field First
Bits/(Pixel*Frame) : 0.338
Stream size : 646 MiB (93%)
Writing library : (c) 1998-2011 Womble Multimedia, Inc. / MPEG Video Wizard DVD 5.0.1.100 (03/2011) / Dec 15 2011
Audio
ID : 192 (0xC0)
Format : MPEG Audio
Format version : Version 1
Format profile : Layer 2
Duration : 25mn 59s
Bit rate mode : Constant
Bit rate : 192 Kbps
Channel(s) : 2 channels
Sampling rate : 48.0 KHz
Video delay : -80ms
Stream size : 35.7 MiB (5%)

Скриншоты

[teatrix.ru].t16966.torrent 
Торрент: Зарегистрирован [ 2016-03-17 00:30 ] · 045A40512FB4ADB7EE5E870794D413CAE4A5BC6B

Скачать .torrent

Скачать

14 KB

Статус: проверено
Скачан: 0 раз
Размер: 695 MB
terms.php



Быстрый ответ

Имя:

      
Для отправки сообщений необходимо включить JavaScript
Показать сообщения:    

Текущее время: 05-Дек 11:32

Часовой пояс: UTC + 3


Вы можете начинать темы
Вы можете отвечать на сообщения
Вы не можете редактировать свои сообщения
Вы не можете удалять свои сообщения
Вы не можете голосовать в опросах
Вы не можете прикреплять файлы к сообщениям
Вы можете скачивать файлы